BitTorrentTracker PerecTracker.org
BitTorrentTracker PerecTracker.org
    
Регистрация  ·  Вход
 
 · 
Забыли пароль?

  • Кунг-фу Панда 3 / Kung Fu Panda 3 (Алессандро Карлони, Дженнифер Ю / Alessandro Carloni, Jennifer Yuh) [2016, Китай, США, Мультфильм, комедия, семейный, BDRip-AVC] Dub (iTunes) + Original Eng + Sub Rus, Eng

    Ответить на тему
     
    Автор Сообщение

    Flirldrerve

    Создавать темы 14-Июн-2016 21:00

           

    [Цитировать]


    Кунг-фу Панда 3 | Kung Fu Panda 3
    «Притяженья больше нет»
    -Страна: Китай, США | China Film Co., DreamWorks Animation, Oriental DreamWorks
    Жанр: Комедия, приключения, семейный
    Продолжительность: 01:34:54
    Год выпуска: 2016
    Перевод: Профессиональный (дублированный) iTunes
    Русские субтитры: есть-Режиссёр: Алессандро Карлони, Дженнифер Ю / Alessandro Carloni, Jennifer Yuh-Роли озвучивали: Джек Блэк, Брайан Крэнстон, Дастин Хоффман, Анджелина Джоли, Дж.К. Симмонс, Джеки Чан, Сет Роген, Люси Лью, Дэвид Кросс, Кейт Хадсон, Джеймс Хонг, Рэндолл Дак Ким, Стил Гэнон...
    -
    Роли дублировали: Михаил Галустян, Александр Новиков, Василиса Эльдарова, Александр Хотченков, Ольга Зубкова, Сергей Чихачев, Диомид Виноградов, Денис Беспалый, Марианна Шульц, Александр Гаврилин, Анастасия Лапина, Олег Форостенко, Борис Быстров, Матвей Некрасов...-ОписаниеВоссоединившись со своим давно потерянным отцом, По отправляется в тайный рай для панд, где его ожидает встреча с множеством веселых сородичей. Однако вскоре злодей Кай начинает зачистку - он уничтожает кунг-фу мастеров по всему Китаю. По предстоит сделать невозможное - обучить боевому искусству деревню, полную его веселых, неуклюжих собратьев, и тем самым превратить их в отряд кунг-фу панд.-
    «Кунг-фу панда 3» (англ. Kung Fu Panda 3) — американский полнометражный компьютерный анимационный фильм. Produced by DreamWorks Animation
    Релиз:


    IMDb: 7.30 (50 545)
    Сэмпл
    Качество: BDRip-AVC Kung Fu Panda 3 (2016) 1080p BD-Remux Hdclub
    Формат: MKV
    Видео: AVC 2054 Kbps 880 x 374 (2.353) 23.976 fps
    Аудио 1: AC3 Dolby Digital, 3/2 (L,C,R,l,r) + LFE ch, 48 kHz, 384 kbps | Дубляж | iTunes
    Аудио 2: AC3 Dolby Digital, 3/2 (L,C,R,l,r) + LFE ch, 48 kHz, 384 kbps | Original |
    Субтитры: Русские (Форсированные, Полные), Украинские (Полные), Английские (Full, Full SDH)

    Скриншоты





    MI | Log

    x264

    x264 [info]: frame I:1204 Avg QP:16.33 size: 68497
    x264 [info]: frame P:34379 Avg QP:18.22 size: 21470
    x264 [info]: frame B:100953 Avg QP:21.47 size: 6743
    x264 [info]: consecutive B-frames: 3.8% 3.7% 12.5% 39.1% 16.5% 13.2% 1.7% 1.0% 0.4% 0.2% 0.2% 0.1% 0.1% 6.0% 1.6%
    x264 [info]: mb I I16..4: 5.2% 60.6% 34.2%
    x264 [info]: mb P I16..4: 1.1% 14.8% 4.3% P16..4: 24.4% 26.7% 14.5% 4.5% 0.8% skip: 8.8%
    x264 [info]: mb B I16..4: 0.2% 2.0% 0.6% B16..8: 28.1% 19.5% 4.9% direct: 5.3% skip:39.4% L0:39.8% L1:41.1% BI:19.0%
    x264 [info]: 8x8 transform intra:71.6% inter:50.2%
    x264 [info]: direct mvs spatial:99.9% temporal:0.1%
    x264 [info]: coded y,uvDC,uvAC intra: 87.7% 92.1% 79.6% inter: 21.4% 21.2% 10.3%
    x264 [info]: i16 v,h,dc,p: 11% 27% 4% 58%
    x264 [info]: i8 v,h,dc,ddl,ddr,vr,hd,vl,hu: 11% 11% 7% 9% 12% 11% 13% 11% 16%
    x264 [info]: i4 v,h,dc,ddl,ddr,vr,hd,vl,hu: 16% 12% 5% 8% 13% 11% 13% 10% 13%
    x264 [info]: i8c dc,h,v,p: 39% 27% 15% 20%
    x264 [info]: Weighted P-Frames: Y:5.9% UV:4.9%
    x264 [info]: ref P L0: 52.7% 12.2% 13.0% 6.3% 4.1% 3.2% 2.3% 1.5% 1.2% 1.2% 1.0% 1.1% 0.1% 0.0%
    x264 [info]: ref B L0: 76.7% 9.6% 5.4% 2.9% 1.9% 1.1% 0.9% 0.5% 0.5% 0.3% 0.2%
    x264 [info]: ref B L1: 94.3% 5.7%
    x264 [info]: kb/s:2109.02
    x264 [total]: encoded 136536 frames, 12.44 fps, 2109.02 kb/s, duration 3:02:53.55
    Format : Matroska
    Format version : Version 4 / Version 2
    File size : 1.91 GiB
    Duration : 1h 34mn
    Overall bit rate : 2 879 Kbps
    Encoded date : UTC 2016-06-14 12:35:30
    Writing application : mkvmerge v6.7.0 ('Back to the Ground') 32bit built on Jan 8 2014 15:03:17
    Writing library : libebml v1.3.0 + libmatroska v1.4.1
    Video
    ID : 1
    Format : AVC
    Format/Info : Advanced Video Codec
    Format profile : High@L4.1
    Format settings, CABAC : Yes
    Format settings, ReFrames : 12 frames
    Codec ID : V_MPEG4/ISO/AVC
    Duration : 1h 34mn
    Bit rate : 2 054 Kbps
    Width : 880 pixels
    Height : 374 pixels
    Display aspect ratio : 2.35:1
    Frame rate mode : Constant
    Frame rate : 23.976 (24000/1001) fps
    Color space : YUV
    Chroma subsampling : 4:2:0
    Bit depth : 8 bits
    Scan type : Progressive
    Bits/(Pixel*Frame) : 0.260
    Stream size : 1.36 GiB (71%)
    Title : Kung Fu Panda 3 (2015) [perectracker.org]
    Writing library : x264 core 148 r2692kMod 64f4e24
    Encoding settings : cabac=1 / ref=12 / deblock=1:-2:-2 / analyse=0x3:0x133 / me=umh / subme=11 / psy=1 / fade_compensate=0.00 / psy_rd=1.00:0.05 / mixed_ref=1 / me_range=48 / chroma_me=1 / trellis=2 / 8x8dct=1 / cqm=0 / deadzone=21,11 / fast_pskip=0 / chroma_qp_offset=-3 / threads=12 / lookahead_threads=2 / sliced_threads=0 / nr=0 / decimate=1 / interlaced=0 / bluray_compat=0 / constrained_intra=0 / fgo=0 / bframes=14 / b_pyramid=2 / b_adapt=2 / b_bias=0 / direct=3 / weightb=1 / open_gop=0 / weightp=2 / keyint=250 / keyint_min=23 / scenecut=40 / intra_refresh=0 / rc_lookahead=60 / rc=crf / mbtree=0 / crf=17.2000 / qcomp=0.60 / qpmin=0 / qpmax=69 / qpstep=4 / vbv_maxrate=50000 / vbv_bufsize=62500 / crf_max=0.0 / nal_hrd=none / filler=0 / ip_ratio=1.40 / pb_ratio=1.30 / aq=3:0.90
    Language : English
    Default : Yes
    Forced : No
    Audio #1
    ID : 2
    Format : AC-3
    Format/Info : Audio Coding 3
    Mode extension : CM (complete main)
    Format settings, Endianness : Big
    Codec ID : A_AC3
    Duration : 1h 34mn
    Bit rate mode : Constant
    Bit rate : 384 Kbps
    Channel(s) : 6 channels
    Channel positions : Front: L C R, Side: L R, LFE
    Sampling rate : 48.0 KHz
    Frame rate : 31.250 fps (1536 spf)
    Compression mode : Lossy
    Stream size : 261 MiB (13%)
    Title : DUB [iTunes]
    Language : Russian
    Default : Yes
    Forced : No
    Audio #2
    ID : 3
    Format : AC-3
    Format/Info : Audio Coding 3
    Mode extension : CM (complete main)
    Format settings, Endianness : Big
    Codec ID : A_AC3
    Duration : 1h 34mn
    Bit rate mode : Constant
    Bit rate : 384 Kbps
    Channel(s) : 6 channels
    Channel positions : Front: L C R, Side: L R, LFE
    Sampling rate : 48.0 KHz
    Frame rate : 31.250 fps (1536 spf)
    Compression mode : Lossy
    Stream size : 261 MiB (13%)
    Title : Original
    Language : English
    Default : No
    Forced : No
    Text #1
    ID : 4
    Format : UTF-8
    Codec ID : S_TEXT/UTF8
    Codec ID/Info : UTF-8 Plain Text
    Title : Forced
    Language : Russian
    Default : Yes
    Forced : No
    Text #2
    ID : 5
    Format : UTF-8
    Codec ID : S_TEXT/UTF8
    Codec ID/Info : UTF-8 Plain Text
    Title : Full
    Language : Russian
    Default : No
    Forced : No
    Text #3
    ID : 6
    Format : UTF-8
    Codec ID : S_TEXT/UTF8
    Codec ID/Info : UTF-8 Plain Text
    Title : Full
    Language : Ukrainian
    Default : No
    Forced : No
    Text #4
    ID : 7
    Format : UTF-8
    Codec ID : S_TEXT/UTF8
    Codec ID/Info : UTF-8 Plain Text
    Title : Full
    Language : English
    Default : No
    Forced : No
    Text #5
    ID : 8
    Format : UTF-8
    Codec ID : S_TEXT/UTF8
    Codec ID/Info : UTF-8 Plain Text
    Title : SDH
    Language : English
    Default : No
    Forced : No
    Menu
    00:00:00.000 : en:Chapter 1
    00:05:21.780 : en:Chapter 2
    00:08:10.240 : en:Chapter 3
    00:10:00.016 : en:Chapter 4
    00:12:26.037 : en:Chapter 5
    00:15:24.215 : en:Chapter 6
    00:19:08.230 : en:Chapter 7
    00:24:39.395 : en:Chapter 8
    00:30:17.607 : en:Chapter 9
    00:33:53.990 : en:Chapter 10
    00:36:18.259 : en:Chapter 11
    00:39:55.643 : en:Chapter 12
    00:43:32.652 : en:Chapter 13
    00:46:45.845 : en:Chapter 14
    00:51:41.181 : en:Chapter 15
    00:56:04.611 : en:Chapter 16
    00:59:48.168 : en:Chapter 17
    01:02:11.353 : en:Chapter 18
    01:05:26.965 : en:Chapter 19
    01:10:16.838 : en:Chapter 20
    01:14:06.901 : en:Chapter 21
    01:17:06.580 : en:Chapter 22
    01:20:34.788 : en:Chapter 23
    01:24:21.181 : en:Chapter 24
    Скачать .torrent

    Скачать торрент-файл бесплатно и на максимальной скорости!

    Как скачивать? · Что такое торрент? · Рейтинг и ограничения

    !ВНИМАНИЕ!
    Сайт не распространяет и не хранит электронные версии произведений, а занимается лишь лишь предоставлением доступа к создаваемому пользователями каталогу ссылок на торрент-файлы, которые содержат только списки хеш-сумм, убедительная просьба с жалобами обращаться напрямую к пользователю. Файлы для обмена на трекере предоставлены пользователями сайта, и администрация не несёт ответственности за их содержание. Просьба не заливать файлы, защищенные авторскими правами, а также файлы нелегального содержания!


    _________________
    [Профиль] [ЛС]
    Показать сообщения:    
    Ответить на тему

    Текущее время: Сегодня, в 16:43

    Часовой пояс: GMT + 2



    Вы не можете начинать темы
    Вы не можете отвечать на сообщения
    Вы не можете редактировать свои сообщения
    Вы не можете удалять свои сообщения
    Вы не можете голосовать в опросах
    Вы не можете прикреплять файлы к сообщениям
    Вы не можете скачивать файлы