BitTorrentTracker PerecTracker.org
BitTorrentTracker PerecTracker.org
    
Регистрация  ·  Вход
 
 · 
Забыли пароль?

  • Канак, забытая история / Kanak, l\'histoire oubliee (Стефан Каппе / Stephane Kappes) [2013, Франция, драма, DVB] Original (Fre) + Sub (Rus, Eng, Fre, Deu)

    Ответить на тему
     
    Автор Сообщение

    Light

    Создавать темы 14-Июн-2016 21:00

           

    [Цитировать]

    Канак, забытая история
    Kanak, l'histoire oubliée-Страна: Франция
    Жанр: драма
    Год выпуска: 2013
    Продолжительность: 01:30:46Перевод: Субтитры (перевод И.Рыбкиной, Éclair Media)
    Cубтитры: русские, английские, французские, немецкие, нидерландские, румынские
    Оригинальная аудиодорожка: французский
    Режиссер: Стефан Каппе / Stéphane Kappes
    В ролях: Яэль Майа / Yaël Mayat (Christian Karembeu), Бенуа Никен / Benoît Nyikeine (Paul), Кетивар Вендегу / Kétiwar Vendegou (Nicolas), Лоран Бато / Laurent Bateau (M. Peyrac)
    Описание: Фильм снят по реальным событиям. В 1988 году 17-летний Кристиан Карамбё собирается понинуть Новую Каледонию, чтобы играть в команде скаутов Нанта. Но вскоре заморская французская территория окажется потрясена захватом заложников в Оувеа, поставившим под сомнение догматы христианства. Кристиан также узнает, что его прадедушка и прабабушка были выставлены на Международной колониальной выставке в Париже в 1931 году. Перед Кристианом встает вопрос: действительно ли ему стоит продолжить свою футбольную карьеру во Франции, не предаст ли он тем самым свой народ и память своих предков?
    Доп. информация: Hot Bird (13.0°E) TV5MONDE Europe DVB-S
    Награда: приз Luchon International Film Festival 2013 лучшему молодому актеру (Yaël Mayat).

    Качество видео: DVB
    Формат видео: TS
    Видео: MPEG Video 2, 720x576@1024x576 (16:9), 25 fps, ~3235 kbps avg, 0.312 bit/pixel
    Аудио: MPEG Audio 2, 2 ch, 48 kHz, 192 kbps - французский
    Формат субтитров: PGS

    MediaInfo

    GeneralID : 1 (0x1)Complete name : [apreder]Kanak_l'histoire_oubliee(2013)DVB.tsFormat : MPEG-TSFile size : 2.29 GiBDuration : 1h 30mnOverall bit rate mode : VariableOverall bit rate : 3 607 KbpsMaximum Overall bit rate : 35.5 Mbps
    VideoID : 4113 (0x1011)Menu ID : 1 (0x1)Format : MPEG VideoFormat version : Version 2Format profile : Main@MainFormat settings, BVOP : YesFormat settings, Matrix : CustomFormat settings, GOP : VariableFormat settings, picture structure : FrameCodec ID : 2Duration : 1h 30mnBit rate mode : VariableBit rate : 3 235 KbpsWidth : 720 pixelsHeight : 576 pixelsDisplay aspect ratio : 16:9Frame rate : 25.000 fpsStandard : PALColor space : YUVChroma subsampling : 4:2:0Bit depth : 8 bitsScan type : InterlacedScan order : Top Field FirstCompression mode : LossyBits/(Pixel*Frame) : 0.312Time code of first frame : 00:00:00:00Time code source : Group of pictures headerGOP, Open/Closed : OpenGOP, Open/Closed of first frame : ClosedStream size : 2.05 GiB (90%)
    AudioID : 4352 (0x1100)Menu ID : 1 (0x1)Format : MPEG AudioFormat version : Version 1Format profile : Layer 2Codec ID : 4Duration : 1h 30mnBit rate mode : ConstantBit rate : 192 KbpsChannel(s) : 2 channelsSampling rate : 48.0 KHzCompression mode : LossyStream size : 125 MiB (5%)Language : French
    Text #1ID : 4608 (0x1200)Menu ID : 1 (0x1)Format : PGSCodec ID : 144Duration : 1h 30mnDelay relative to video : 2s 680msLanguage : Russian
    Text #2ID : 4609 (0x1201)Menu ID : 1 (0x1)Format : PGSCodec ID : 144Duration : 1h 30mnDelay relative to video : 2s 680msLanguage : English
    Text #3ID : 4610 (0x1202)Menu ID : 1 (0x1)Format : PGSCodec ID : 144Duration : 1h 30mnDelay relative to video : 12s 360msLanguage : French
    Text #4ID : 4611 (0x1203)Menu ID : 1 (0x1)Format : PGSCodec ID : 144Duration : 1h 30mnDelay relative to video : 2s 680msLanguage : German
    Text #5ID : 4612 (0x1204)Menu ID : 1 (0x1)Format : PGSCodec ID : 144Duration : 1h 30mnDelay relative to video : 2s 680msLanguage : Dutch
    Text #6ID : 4613 (0x1205)Menu ID : 1 (0x1)Format : PGSCodec ID : 144Delay relative to video : 2s 960msLanguage : Romanian

    Скриншот c названием фильма

    Скриншоты

    Резервные скриншоты


    Пример субтитрв

    1
    00:00:00,799 --> 00:00:02,398
    Они изображали людоедов.
    2
    00:00:02,600 --> 00:00:04,119
    А вожди придумали
    легенду,
    3
    00:00:04,279 --> 00:00:07,039
    чтобы мы не послали
    Францию ко всем чертям.
    4
    00:00:07,199 --> 00:00:08,158
    Вот видишь!
    5
    00:00:08,320 --> 00:00:11,239
    -Не верил мне!
    -К ним относились, как к людоедам.
    6
    00:00:11,920 --> 00:00:14,839
    А теперь вожди позволяют
    белым брать наш никель,
    7
    00:00:14,999 --> 00:00:16,519
    испытывать атомные бомбы.
    8
    00:00:16,679 --> 00:00:18,878
    Если твой отец
    и его приспешники
    9
    00:00:19,039 --> 00:00:22,238
    боятся прогнать кальдошей,
    это сделаем мы.
    10
    00:00:22,440 --> 00:00:23,359
    Прямо сейчас.
    11
    00:00:43,079 --> 00:00:44,879
    Давай ты.
    12
    00:00:46,760 --> 00:00:49,399
    -Это земля Кассара.
    -Да плевать!
    13
    00:00:57,319 --> 00:00:58,799
    Стреляй! Чего ждешь?
    14
    00:00:58,999 --> 00:00:00,000
    Стреляй!
    -
    Скачать .torrent

    Скачать торрент-файл бесплатно и на максимальной скорости!

    Как скачивать? · Что такое торрент? · Рейтинг и ограничения

    !ВНИМАНИЕ!
    Сайт не распространяет и не хранит электронные версии произведений, а занимается лишь лишь предоставлением доступа к создаваемому пользователями каталогу ссылок на торрент-файлы, которые содержат только списки хеш-сумм, убедительная просьба с жалобами обращаться напрямую к пользователю. Файлы для обмена на трекере предоставлены пользователями сайта, и администрация не несёт ответственности за их содержание. Просьба не заливать файлы, защищенные авторскими правами, а также файлы нелегального содержания!


    _________________
    [Профиль] [ЛС]
    Показать сообщения:    
    Ответить на тему

    Текущее время: Сегодня, в 12:15

    Часовой пояс: GMT + 2



    Вы не можете начинать темы
    Вы не можете отвечать на сообщения
    Вы не можете редактировать свои сообщения
    Вы не можете удалять свои сообщения
    Вы не можете голосовать в опросах
    Вы не можете прикреплять файлы к сообщениям
    Вы не можете скачивать файлы