BitTorrentTracker PerecTracker.org
BitTorrentTracker PerecTracker.org
    
Регистрация  ·  Вход
 
 · 
Забыли пароль?

  • Бешеные / Enragés (Эрик Ханнецо / Éric Hannezo) [2015, Франция, Канада, боевик, триллер, драма, BDRemux 1080i] MVO + Original (Fre)

    Ответить на тему
     
    Автор Сообщение

    Light

    Создавать темы 14-Июн-2016 16:55

           

    [Цитировать]

    Бешеные / Enragés

    -
    -Страна: Франция, Канада
    Студия: Black Dynamite films, Canal+
    Жанр: боевик, триллер, драма
    Год выпуска: 2015
    Продолжительность: 01:29:48--Перевод: Профессиональный (многоголосый закадровый) iTunes
    Cубтитры: нет
    Оригинальная аудиодорожка: французский--Режиссер: Эрик Ханнецо / Éric Hannezo
    В ролях: Ламбер Вильсон, Гийом Гуи, Виржини Ледуайен, Франк Гастамбид, Франсуа Арно, Лоран Люка, Mégane Lemée, Александр Гойетт, Пьер Лебо, Дэйв Лапоммерей, Габриель Лазюр, Жизель Трепанье--Описание: После ограбления банка трое отчаянных преступников берут в заложники молодую женщину и отца с ребёнком. Это станет началом жестокой поездки, которую не все из них переживут.-- | | Сэмпл--Тип релиза: BDRemux 1080i [Enragés 2015 1080p FRA Blu-ray AVC DTS-HD MA 5.1-4FR]
    Контейнер: MKV
    Видео: MPEG-4 AVC / 31605 kbps / 1920x1080 / 25 fps / 16:9 / High Profile 4.1
    Аудио 1: Russian AC3 / 5.1 / 48 kHz / 384 kbps / 16 bits |MVO, iTunes|
    Аудио 2: French DTS-HD Master Audio / 5.1 / 48 kHz / 3684 kbps / 24 bits (DTS Core: 5.1 / 48 kHz / 1509 kbps / 24 bits) |original|

    MediaInfo

    Общее
    Уникальный идентификатор                 : 195213061315270309501131466648889432079 (0x92DCAB04297D0B82A608E4894EB1980F)
    Полное имя                               : G:\HD\Бешеные.2015.Blu-Ray.Remux.(1080i).mkv
    Формат                                   : Matroska
    Версия формата                           : Version 4 / Version 2
    Размер файла                             : 22,4 Гбайт
    Продолжительность                        : 1 ч. 29 м.
    Режим общего битрейта                    : Переменный
    Общий поток                              : 35,7 Мбит/сек
    Дата кодирования                         : UTC 2016-06-12 17:39:54
    Программа кодирования                    : mkvmerge v9.2.0 ('Photograph') 64bit
    Библиотека кодирования                   : libebml v1.3.3 + libmatroska v1.4.4
    Attachments                              : poster.jpg
    Видео
    Идентификатор                            : 1
    Формат                                   : AVC
    Формат/Информация                        : Advanced Video Codec
    Профиль формата                          : Main@L4.1
    Параметр CABAC формата                   : Да
    Параметр ReFrames формата                : 4 кадра
    Параметр GOP формата                     : M=1, N=12
    Идентификатор кодека                     : V_MPEG4/ISO/AVC
    Продолжительность                        : 1 ч. 29 м.
    Вид битрейта                             : Переменный
    Битрейт                                  : 31,6 Мбит/сек
    Максимальный битрейт                     : 39,6 Мбит/сек
    Ширина                                   : 1920 пикселей
    Высота                                   : 1080 пикселей
    Соотношение сторон                       : 16:9
    Режим частоты кадров                     : Переменный
    Частота кадров                           : 50,000 кадров/сек
    Частота кадров в оригинале               : 25,000 кадров/сек
    Цветовое пространство                    : YUV
    Субдискретизация насыщенности            : 4:2:0
    Битовая глубина                          : 8 бит
    Тип развёртки                            : Чересстрочная
    Метод сохранения типа развёртки          : Раздельные поля
    Порядок развёртки                        : Верхнее поле первое
    Бит/(Пиксели*Кадры)                      : 0.305
    Размер потока                            : 19,8 Гбайт (89%)
    Default                                  : Да
    Forced                                   : Нет
    Цветовой диапазон                        : Limited
    Основные цвета                           : BT.709
    Характеристики трансфера                 : BT.709
    Коэффициенты матрицы                     : BT.709
    Аудио #1
    Идентификатор                            : 2
    Формат                                   : AC-3
    Формат/Информация                        : Audio Coding 3
    Расширение режима                        : CM (complete main)
    Параметр Endianness формата              : Big
    Идентификатор кодека                     : A_AC3
    Продолжительность                        : 1 ч. 29 м.
    Вид битрейта                             : Постоянный
    Битрейт                                  : 384 Кбит/сек
    Каналы                                   : 6 каналов
    Расположение каналов                     : Front: L C R, Side: L R, LFE
    Частота                                  : 48,0 КГц
    Частота кадров                           : 31,250 кадров/сек (1536 spf)
    Метод сжатия                             : С потерями
    Размер потока                            : 247 Мбайт (1%)
    Заголовок                                : MVO, iTunes
    Язык                                     : Russian
    Default                                  : Да
    Forced                                   : Нет
    Аудио #2
    Идентификатор                            : 3
    Формат                                   : DTS
    Формат/Информация                        : Digital Theater Systems
    Профиль формата                          : MA / Core
    Режим                                    : 16
    Параметр Endianness формата              : Big
    Идентификатор кодека                     : A_DTS
    Продолжительность                        : 1 ч. 29 м.
    Вид битрейта                             : Переменный / Постоянный
    Битрейт                                  : 3684 Кбит/сек / 1509 Кбит/сек
    Каналы                                   : 6 каналов
    Расположение каналов                     : Front: L C R, Side: L R, LFE
    Частота                                  : 48,0 КГц
    Частота кадров                           : 93,750 кадра/сек (512 spf)
    Битовая глубина                          : 24 бит
    Метод сжатия                             : Без потерь / Lossy
    Размер потока                            : 2,31 Гбайт (10%)
    Язык                                     : French
    Default                                  : Нет
    Forced                                   : Нет
    Меню
    00:00:00.000                             : :Chapter 01
    00:09:13.600                             : :Chapter 02
    00:16:36.960                             : :Chapter 03
    00:24:42.440                             : :Chapter 04
    00:32:37.360                             : :Chapter 05
    00:40:00.720                             : :Chapter 06
    00:47:57.319                             : :Chapter 07
    00:56:53.960                             : :Chapter 08
    01:03:44.760                             : :Chapter 09
    01:12:55.760                             : :Chapter 10
    01:17:34.160                             : :Chapter 11
    01:26:31.480                             : :Chapter 12

    Скриншоты


    Дополнительно
    Цитата:Русская дорожка взята с этой раздачи thx: Stalker oK
    Скачать .torrent

    Скачать торрент-файл бесплатно и на максимальной скорости!

    Как скачивать? · Что такое торрент? · Рейтинг и ограничения

    !ВНИМАНИЕ!
    Сайт не распространяет и не хранит электронные версии произведений, а занимается лишь лишь предоставлением доступа к создаваемому пользователями каталогу ссылок на торрент-файлы, которые содержат только списки хеш-сумм, убедительная просьба с жалобами обращаться напрямую к пользователю. Файлы для обмена на трекере предоставлены пользователями сайта, и администрация не несёт ответственности за их содержание. Просьба не заливать файлы, защищенные авторскими правами, а также файлы нелегального содержания!


    _________________
    [Профиль] [ЛС]
    Показать сообщения:    
    Ответить на тему

    Текущее время: Сегодня, в 20:45

    Часовой пояс: GMT + 2



    Вы не можете начинать темы
    Вы не можете отвечать на сообщения
    Вы не можете редактировать свои сообщения
    Вы не можете удалять свои сообщения
    Вы не можете голосовать в опросах
    Вы не можете прикреплять файлы к сообщениям
    Вы не можете скачивать файлы