BitTorrentTracker PerecTracker.org
BitTorrentTracker PerecTracker.org
    
Регистрация  ·  Вход
 
 · 
Забыли пароль?

  • Игра на понижение / The Big Short (Адам МакКей / Adam McKay) [2015, США, драма, комедия, биография, BDRip 720p] Dub + VO (Doctor Joker) + Sub Rus, Eng + Original Eng

    Ответить на тему
     
    Автор Сообщение

    Light

    Создавать темы 14-Июн-2016 16:55

           

    [Цитировать]

    -Игра на понижение / The Big Short-Страна: США
    Жанр: Драма, Комедия, Биография
    Год выпуска: 2015
    Продолжительность: 02:10:38-Перевод: Профессиональный (дублированный)
    Перевод 2: Одноголосый закадровый Алексей "Doctor Joker" Матвеев
    Cубтитры: русские (2 вида форсированных и 3 вида полных), английские
    Оригинальная аудиодорожка: английский-Режиссер: Адам МакКей / Adam McKay
    В ролях: Кристиан Бэйл, Стив Карелл, Райан Гослинг, Брэд Питт, Мелисса Лео, Хамиш Линклэйтер, Джон Магаро, Рейф Сполл, Джереми Стронг, Мариса Томей, Финн Уиттрок, Стэнли Вонг, Байрон Манн, Трэйси Леттс, Карен Гиллан, Селена Гомес, Макс Гринфилд, Марго Робби, Руди Айзенцопф, Кэйси Гров-Описание: Когда речь идет о деньгах, совесть молчит. А уж если речь об огромных деньгах!.. Это основанная на реальных событиях история нескольких провидцев, которые независимо друг от друга предсказали мировой экономический кризис 2008 года задолго до того, как о нем зашептались в кулуарах на Уолл-стрит. И предсказав, стали на нем зарабатывать. Сами того не желая.-Сэмпл-Тип релиза: BDRip 720p
    Контейнер: MKV
    Видео: MPEG-4 AVC Video 8599 kbps 1280x534p / 23.976 fps / 2.40:1 / High Profile 4.1
    Аудио: Dolby Digital Audio Russian 5.1 / 48 kHz / 640 kbps / DN -4dB
    Аудио 2: DTS Audio Russian 5.1 / 48 kHz / 1509 kbps
    Аудио 3: DTS Audio English 5.1 / 48 kHz / 1509 kbps

    Видеоряд от HiDt

    Source - HiDt - Replica



    MI

    GeneralUnique ID : 252119452688469051096424888145660334162 (0xBDAC70BABF15E8E4AA53AD5503BBD052)Complete name : S:\На хранении\Игра на понижение (2015. The Big Short) 720p.mkvFormat : MatroskaFormat version : Version 4 / Version 2File size : 11.2 GiBDuration : 2h 10mnOverall bit rate : 12.2 MbpsMovie name : Release for RuTrackerEncoded date : UTC 2016-06-13 01:39:32Writing application : mkvmerge v9.0.1 ('Obstacles') 64bitWriting library : libebml v1.3.3 + libmatroska v1.4.4Cover : YesAttachments : cover.jpg
    VideoID : 1Format : AVCFormat/Info : Advanced Video CodecFormat profile : High@L4.1Format settings, CABAC : YesFormat settings, ReFrames : 12 framesCodec ID : V_MPEG4/ISO/AVCDuration : 2h 10mnBit rate : 8 599 KbpsWidth : 1 280 pixelsHeight : 534 pixelsDisplay aspect ratio : 2.40:1Frame rate mode : ConstantFrame rate : 23.976 (24000/1001) fpsColor space : YUVChroma subsampling : 4:2:0Bit depth : 8 bitsScan type : ProgressiveBits/(Pixel*Frame) : 0.525Stream size : 7.82 GiB (70%)Title : The.Big.Short.2015.720p.BluRay.DTS.x264-HiDtWriting library : x264 core 148 r2638 7599210Encoding settings : cabac=1 / ref=12 / deblock=1:-3:-3 / analyse=0x3:0x133 / me=tesa / subme=11 / psy=1 / psy_rd=1.00:0.00 / mixed_ref=1 / me_range=24 / chroma_me=1 / trellis=2 / 8x8dct=1 / cqm=0 / deadzone=21,11 / fast_pskip=0 / chroma_qp_offset=-2 / threads=12 / lookahead_threads=3 / sliced_threads=0 / nr=0 / decimate=1 / interlaced=0 / bluray_compat=0 / constrained_intra=0 / bframes=10 / b_pyramid=2 / b_adapt=2 / b_bias=0 / direct=3 / weightb=1 / open_gop=0 / weightp=2 / keyint=240 / keyint_min=23 / scenecut=40 / intra_refresh=0 / rc_lookahead=60 / rc=crf / mbtree=0 / crf=17.0 / qcomp=0.73 / qpmin=0 / qpmax=69 / qpstep=4 / vbv_maxrate=62500 / vbv_bufsize=78125 / crf_max=0.0 / nal_hrd=none / filler=0 / ip_ratio=1.38 / pb_ratio=1.22 / aq=1:0.80Language : EnglishDefault : YesForced : No
    Audio #1ID : 2Format : AC-3Format/Info : Audio Coding 3Mode extension : CM (complete main)Format settings, Endianness : BigCodec ID : A_AC3Duration : 2h 10mnBit rate mode : ConstantBit rate : 640 KbpsChannel(s) : 6 channelsChannel positions : Front: L C R, Side: L R, LFESampling rate : 48.0 KHzFrame rate : 31.250 fps (1536 spf)Compression mode : LossyStream size : 596 MiB (5%)Title : Дубляж [Blu-ray CEE]Language : RussianDefault : YesForced : No
    Audio #2ID : 3Format : DTSFormat/Info : Digital Theater SystemsMode : 16Format settings, Endianness : BigCodec ID : A_DTSDuration : 2h 10mnBit rate mode : ConstantBit rate : 1 509 KbpsChannel(s) : 6 channelsChannel positions : Front: L C R, Side: L R, LFESampling rate : 48.0 KHzFrame rate : 93.750 fps (512 spf)Bit depth : 24 bitsCompression mode : LossyStream size : 1.37 GiB (12%)Title : Алексей "Doctor Joker" МатвеевLanguage : RussianDefault : NoForced : No
    Audio #3ID : 4Format : DTSFormat/Info : Digital Theater SystemsMode : 16Format settings, Endianness : BigCodec ID : A_DTSDuration : 2h 10mnBit rate mode : ConstantBit rate : 1 509 KbpsChannel(s) : 6 channelsChannel positions : Front: L C R, Side: L R, LFESampling rate : 48.0 KHzFrame rate : 93.750 fps (512 spf)Bit depth : 24 bitsCompression mode : LossyStream size : 1.37 GiB (12%)Language : EnglishDefault : NoForced : No
    Text #1ID : 5Format : UTF-8Codec ID : S_TEXT/UTF8Codec ID/Info : UTF-8 Plain TextDuration : 2h 9mnBit rate : 6 bpsCount of elements : 116Stream size : 5.87 KiB (0%)Title : Forced R5Language : RussianDefault : YesForced : No
    Text #2ID : 6Format : UTF-8Codec ID : S_TEXT/UTF8Codec ID/Info : UTF-8 Plain TextDuration : 2h 2mnBit rate : 4 bpsCount of elements : 35Stream size : 3.81 KiB (0%)Title : Forced v2Language : RussianDefault : NoForced : No
    Text #3ID : 7Format : UTF-8Codec ID : S_TEXT/UTF8Codec ID/Info : UTF-8 Plain TextDuration : 2h 9mnBit rate : 130 bpsCount of elements : 2000Stream size : 124 KiB (0%)Title : R5Language : RussianDefault : NoForced : No
    Text #4ID : 8Format : UTF-8Codec ID : S_TEXT/UTF8Codec ID/Info : UTF-8 Plain TextDuration : 2h 3mnBit rate : 152 bpsCount of elements : 1757Stream size : 138 KiB (0%)Title : Doctor JokerLanguage : RussianDefault : NoForced : No
    Text #5ID : 9Format : UTF-8Codec ID : S_TEXT/UTF8Codec ID/Info : UTF-8 Plain TextDuration : 2h 3mnBit rate : 165 bpsCount of elements : 2442Stream size : 149 KiB (0%)Title : НотабеноидLanguage : RussianDefault : NoForced : No
    Text #6ID : 10Format : UTF-8Codec ID : S_TEXT/UTF8Codec ID/Info : UTF-8 Plain TextDuration : 2h 0mnBit rate : 94 bpsCount of elements : 2307Stream size : 83.7 KiB (0%)Language : EnglishDefault : NoForced : No
    Text #7ID : 11Format : UTF-8Codec ID : S_TEXT/UTF8Codec ID/Info : UTF-8 Plain TextDuration : 2h 3mnBit rate : 98 bpsCount of elements : 2662Stream size : 89.4 KiB (0%)Title : SDHLanguage : EnglishDefault : NoForced : No
    Menu00:00:00.000 : en:Chapter 100:09:24.564 : en:Chapter 200:15:47.571 : en:Chapter 300:19:03.058 : en:Chapter 400:25:59.516 : en:Chapter 500:28:49.978 : en:Chapter 600:37:24.242 : en:Chapter 700:42:54.488 : en:Chapter 800:49:36.682 : en:Chapter 900:57:01.835 : en:Chapter 1001:02:09.892 : en:Chapter 1101:10:52.957 : en:Chapter 1201:17:03.243 : en:Chapter 1301:20:57.102 : en:Chapter 1401:29:53.221 : en:Chapter 1501:34:37.046 : en:Chapter 1601:41:15.903 : en:Chapter 1701:45:30.490 : en:Chapter 1801:49:34.651 : en:Chapter 1901:55:16.075 : en:Chapter 2002:03:44.500 : en:Chapter 21
    Скриншоты

    Зеркало


    Цитата:
    Цитата:

    • Перевод Матвеева доступен, благодаря участникам Переулка Переводмана: 7654, ana2363, Lecter1975, Shrooms, sa1992, Wa1ker, Антиквар, Аноним, Ananerbe, J. Green, RafL, S_P, shagrath88, Shandorra, 1woody1, guinness. Низкий им поклон. Работа со звуком - Переводман
    • Сохранены оригинальные чаптеры как на Blu-ray.
    Скачать .torrent

    Скачать торрент-файл бесплатно и на максимальной скорости!

    Как скачивать? · Что такое торрент? · Рейтинг и ограничения

    !ВНИМАНИЕ!
    Сайт не распространяет и не хранит электронные версии произведений, а занимается лишь лишь предоставлением доступа к создаваемому пользователями каталогу ссылок на торрент-файлы, которые содержат только списки хеш-сумм, убедительная просьба с жалобами обращаться напрямую к пользователю. Файлы для обмена на трекере предоставлены пользователями сайта, и администрация не несёт ответственности за их содержание. Просьба не заливать файлы, защищенные авторскими правами, а также файлы нелегального содержания!


    _________________
    [Профиль] [ЛС]
    Показать сообщения:    
    Ответить на тему

    Текущее время: Сегодня, в 05:26

    Часовой пояс: GMT + 2



    Вы не можете начинать темы
    Вы не можете отвечать на сообщения
    Вы не можете редактировать свои сообщения
    Вы не можете удалять свои сообщения
    Вы не можете голосовать в опросах
    Вы не можете прикреплять файлы к сообщениям
    Вы не можете скачивать файлы