BitTorrentTracker PerecTracker.org
BitTorrentTracker PerecTracker.org
    
Регистрация  ·  Вход
 
 · 
Забыли пароль?

  • Антония (Жизнь Антонии) / Antonia (Antonia\'s Line) (Марлин Горрис / Marleen Gorris) [1995, Нидерланды, Бельгия, Великобритания, драма, BDRip 720p] VO + Sub Eng + Original Dut

    Ответить на тему
     
    Автор Сообщение

    Light

    Создавать темы 14-Июн-2016 16:55

           

    [Цитировать]

    Антония (Жизнь Антонии) / Antonia (Antonia's Line)
    Страна: Нидерланды, Бельгия, Великобритания
    Жанр: драма
    Год выпуска: 1995
    Продолжительность: 01:42:33
    Перевод: Одноголосый закадровый
    Cубтитры: английские
    Оригинальная аудиодорожка: нидерландский
    Режиссер: Марлин Горрис / Marleen Gorris
    В ролях: Виллеке ван Аммельрой, Элс Доттерманс, Ян Деклер, Марина Де Грааф, Мил Зегерс, Дора Ван Дер Гроэн, Веерле Ван Оверлооп, Каролин Споор
    Описание: Действие фильма разворачивается на протяжении 40 лет и повествует о пяти поколениях одной семьи независимых женщин, и главы их необычного семейства, Антонии. Вскоре после Второй мировой войны она возвращается в свой родной поселок с дочерью. Это и притча, и фарс, и высокая трагедия о цикличной природе времени и женской красоте...
    "Трагедия людей, верящих в бога какой-либо одной религии, в том, что вера ограничивает правилами их интеллект", - говорит повесившийся. Он искал ответы в книгах, а Марлеен Горрис подсказывает, что искать ответ надо в жизни. Оглянитесь вокруг себя. Зла много, но и добро неискоренимо. "

    Оскар за лучший иностранный фильм 1996 года
    Национальная бельгийская кинопремия им. Йозефа Плато за лучшую женскую роль Элс Доттерманс. Номинация на лучший игровой фильм.
    Главный приз "Золотой теленок" за лучшую режиссуру (Марлен Горрис) и лучшую женскую роль (Виллеке Ван Аммелроой) на Нидерландском международном кинофестивале, Утрехт.
    Приз зрительских симпатий режиссеру Марлен Горрис на международном кинофестивале в Торонто
    Номинация на Золотой Колос на международном кинофестивале в Валладоли
    Номинация в категории "выдающийся фильм" на премию Альянса геев и лесбиянок против дискриминации.
    Номинация на премию британской киноакадемии в категории "Лучший неанглоязычный фильм".
    Номинация на премию Ассоциации кинокритиков Аргентины "Золотой кондор".

    Доп. информация: К BDRip 720p, скачанному с забугорного трекера, добавлена русская звуковая дорожка с этой раздачи, спасибо larisska.
    Сэмпл: http://multi-up.com/1105631
    Тип релиза: BDRip 720p
    Контейнер: MKV
    Видео: AVC, 7735 kbps, 1280x 720, 23.976 fps
    Аудио 1: Russian (Dolby AC3, 2 ch), 48 kHz, 256 kbps
    Аудио 2: Dutch (Dolby AC3, 2 ch), 48 kHz, 448 kbps
    Формат субтитров: UTF-8, VobSub

    MediaInfo

    Matroska
    Версия формата : Version 2
    Размер файла : 6,04 Гбайт
    Продолжительность : 1 ч. 42 м.
    Общий поток : 8439 Кбит/сек
    Дата кодирования : UTC 2016-06-13 05:54:56
    Программа кодирования : mkvmerge v7.5.0 ('Glass Culture') 32bit built on Jan 4 2015 16:37:25
    Библиотека кодирования : libebml v1.3.1 + libmatroska v1.4.2
    DURATION : 01:42:33.152000000
    NUMBER_OF_FRAMES : 192286
    NUMBER_OF_BYTES : 196900864
    _STATISTICS_WRITING_APP : mkvmerge v7.5.0 ('Glass Culture') 32bit built on Jan 4 2015 16:37:25
    _STATISTICS_WRITING_DATE_UTC : 2016-06-13 05:54:56
    _STATISTICS_TAGS : BPS DURATION NUMBER_OF_FRAMES NUMBER_OF_BYTES
    Видео
    Идентификатор : 1
    Формат : AVC
    Формат/Информация : Advanced Video Codec
    Профиль формата : High@L4.1
    Параметр CABAC формата : Да
    Параметр ReFrames формата : 9 кадров
    Идентификатор кодека : V_MPEG4/ISO/AVC
    Продолжительность : 1 ч. 42 м.
    Битрейт : 7735 Кбит/сек
    Ширина : 1280 пикселей
    Высота : 720 пикселей
    Соотношение сторон : 16:9
    Режим частоты кадров : Постоянный
    Частота кадров : 23,976 кадра/сек
    Цветовое пространство : YUV
    Субдискретизация насыщенности : 4:2:0
    Битовая глубина : 8 бит
    Тип развёртки : Прогрессивная
    Бит/(Пиксели*Кадры) : 0.350
    Размер потока : 5,42 Гбайт (90%)
    Библиотека кодирования : x264 core 142 r2479 dd79a61
    Настройки программы : cabac=1 / ref=9 / deblock=1:-3:-3 / analyse=0x3:0x133 / me=umh / subme=9 / psy=1 / psy_rd=1.00:0.00 / mixed_ref=1 / me_range=34 / chroma_me=1 / trellis=2 / 8x8dct=1 / cqm=0 / deadzone=21,11 / fast_pskip=0 / chroma_qp_offset=-2 / threads=18 / lookahead_threads=3 / sliced_threads=0 / nr=0 / decimate=1 / interlaced=0 / bluray_compat=0 / constrained_intra=0 / bframes=9 / b_pyramid=2 / b_adapt=2 / b_bias=0 / direct=3 / weightb=1 / open_gop=0 / weightp=2 / keyint=240 / keyint_min=24 / scenecut=40 / intra_refresh=0 / rc_lookahead=100 / rc=2pass / mbtree=1 / bitrate=7735 / ratetol=1.0 / qcomp=0.60 / qpmin=0 / qpmax=69 / qpstep=4 / cplxblur=20.0 / qblur=0.5 / vbv_maxrate=62500 / vbv_bufsize=78125 / nal_hrd=none / filler=0 / ip_ratio=1.40 / aq=1:1.00
    Язык : Russian
    Default : Да
    Forced : Нет
    Основные цвета : BT.709
    Характеристики трансфера : BT.709
    Коэффициенты матрицы : BT.709
    colour_range : Limited
    DURATION : 01:42:33.106000000
    NUMBER_OF_FRAMES : 147527
    NUMBER_OF_BYTES : 5945637362
    _STATISTICS_WRITING_APP : mkvmerge v7.5.0 ('Glass Culture') 32bit built on Jan 4 2015 16:37:25
    _STATISTICS_WRITING_DATE_UTC : 2016-06-13 05:54:56
    _STATISTICS_TAGS : BPS DURATION NUMBER_OF_FRAMES NUMBER_OF_BYTES
    Аудио #1
    Идентификатор : 2
    Формат : AC-3
    Формат/Информация : Audio Coding 3
    Расширение режима : CM (complete main)
    Параметр Endianness формата : Big
    Идентификатор кодека : A_AC3
    Продолжительность : 1 ч. 42 м.
    Вид битрейта : Постоянный
    Битрейт : 256 Кбит/сек
    Каналы : 2 канала
    Расположение каналов : Front: L R
    Частота : 48,0 КГц
    Битовая глубина : 16 бит
    Метод сжатия : С потерями
    Размер потока : 188 Мбайт (3%)
    Язык : Russian
    Default : Да
    Forced : Нет
    DURATION : 01:42:33.152000000
    NUMBER_OF_FRAMES : 192286
    NUMBER_OF_BYTES : 344576512
    _STATISTICS_WRITING_APP : mkvmerge v7.5.0 ('Glass Culture') 32bit built on Jan 4 2015 16:37:25
    _STATISTICS_WRITING_DATE_UTC : 2016-06-13 05:54:56
    _STATISTICS_TAGS : BPS DURATION NUMBER_OF_FRAMES NUMBER_OF_BYTES
    Аудио #2
    Идентификатор : 3
    Формат : AC-3
    Формат/Информация : Audio Coding 3
    Расширение режима : CM (complete main)
    Параметр Endianness формата : Big
    Идентификатор кодека : A_AC3
    Продолжительность : 1 ч. 42 м.
    Вид битрейта : Постоянный
    Битрейт : 448 Кбит/сек
    Каналы : 2 канала
    Расположение каналов : Front: L R
    Частота : 48,0 КГц
    Битовая глубина : 16 бит
    Метод сжатия : С потерями
    Размер потока : 329 Мбайт (5%)
    Заголовок : Stereo
    Язык : Dutch
    Default : Нет
    Forced : Нет
    Текст #1
    Идентификатор : 4
    Формат : UTF-8
    Идентификатор кодека : S_TEXT/UTF8
    Идентификатор кодека/Информация : UTF-8 Plain Text
    Язык : English
    Default : Нет
    Forced : Нет
    Текст #2
    Идентификатор : 5
    Формат : VobSub
    Режим смешивания : zlib
    Идентификатор кодека : S_VOBSUB
    Идентификатор кодека/Информация : The same subtitle format used on DVDs
    Язык : English
    Default : Нет
    Forced : Нет
    Меню
    00:00:00.000 : :Chapter 1
    00:09:13.136 : :Chapter 2
    00:17:51.654 : :Chapter 3
    00:26:20.871 : :Chapter 4
    00:36:05.496 : :Chapter 5
    00:46:33.665 : :Chapter 6
    00:53:24.785 : :Chapter 7
    01:02:50.600 : :Chapter 8
    01:11:52.433 : :Chapter 9
    01:19:40.692 : :Chapter 10
    01:30:21.290 : :Chapter 11
    01:38:50.257 : :Chapter 12
    01:42:31.478 : :Chapter 13

    Скриншоты

    Скачать .torrent

    Скачать торрент-файл бесплатно и на максимальной скорости!

    Как скачивать? · Что такое торрент? · Рейтинг и ограничения

    !ВНИМАНИЕ!
    Сайт не распространяет и не хранит электронные версии произведений, а занимается лишь лишь предоставлением доступа к создаваемому пользователями каталогу ссылок на торрент-файлы, которые содержат только списки хеш-сумм, убедительная просьба с жалобами обращаться напрямую к пользователю. Файлы для обмена на трекере предоставлены пользователями сайта, и администрация не несёт ответственности за их содержание. Просьба не заливать файлы, защищенные авторскими правами, а также файлы нелегального содержания!


    _________________
    [Профиль] [ЛС]
    Показать сообщения:    
    Ответить на тему

    Текущее время: Сегодня, в 08:34

    Часовой пояс: GMT + 2



    Вы не можете начинать темы
    Вы не можете отвечать на сообщения
    Вы не можете редактировать свои сообщения
    Вы не можете удалять свои сообщения
    Вы не можете голосовать в опросах
    Вы не можете прикреплять файлы к сообщениям
    Вы не можете скачивать файлы