BitTorrentTracker PerecTracker.org
BitTorrentTracker PerecTracker.org
    
Регистрация  ·  Вход
 
 · 
Забыли пароль?

  • Головоломка / Inside Out (Пит Доктeр, Рoналдо Дель Кармен / Pete Dоcter, Rоnnie Del Carmen) [2015, США, Мультфильм, комедия, приключения, семейный, BDRip-AVC] (Локализованный видеоряд) Dub + Original Eng + Sub Rus, Eng

    Ответить на тему
     
    Автор Сообщение

    Flirldrerve

    Создавать темы 14-Июн-2016 16:55

           

    [Цитировать]

    Головоломка / Inside Out
    Слоган: «Нет слов, одни эмоции»
    Страна: США
    Жанр: Мультфильм, комедия, приключения, семейный
    Продолжительность: 01:34:49
    Год выпуска: 2015
    Перевод: Профессиональный (дублированный)
    Русские субтитры: есть--Режиссёр: Пит Доктeр, Рoналдо Дель Кармен / Pete Dоcter, Rоnnie Del Carmen--Роли озвучивали: Льюис Блэк, Минди Кейлинг, Билл Хейдер, Эми Полер, Филлис Смит, Ричард Кайнд, Кейтлин Диас, Дайан Лэйн, Кайл МакЛоклен, Пола Паундстон, Бобби Мойнахан, Паула Пелл, Дэйв Гольц...--Роли дублировали: Натали, Олеся Железняк, Максим Виторган, Владимир Епифанцев, Дмитрий Нагиев, Ксения Собчак, Ангелина Грязева, Татьяна Шитова, Денис Некрасов, Елена Шульман, Алексей Войтюк...--Описание: Райли — обычная 11-летняя школьница, и, как у каждого из нас, ее поведение определяют пять базовых эмоций: Радость, Печаль, Страх, Гнев и Брезгливость. Эмоции живут в сознании девочки и каждый день помогают ей справляться с проблемами, руководя всеми ее поступками. До поры до времени эмоции живут дружно, но вдруг оказывается, что Райли и ее родителям предстоит переезд из небольшого уютного городка в шумный и людный мегаполис. Каждая из эмоций считает, что именно она лучше прочих знает, что нужно делать в этой непростой ситуации, и в голове у девочки наступает полная неразбериха. Чтобы наладить жизнь в большом городе, освоиться в новой школе и подружиться с одноклассниками, эмоциям Райли предстоит снова научиться работать сообща.--Доп. информация: | IMDB | КиноПоиск | Сэмпл |--Качество: BDRip-AVC
    Формат: MKV
    Видео: AVC, 736x414, (16:9), 976 kbps, 23.976 fps, 0.134 bit/pixel
    Аудио 1: AАС-HE, 48.0 KHz, 64 Kbps, 2 channels
    Аудио 2: AАС-HE, 48.0 KHz, 64 Kbps, 2 channels
    Субтитры: Русские, Французские, Английские (Full, SDH, Comentary)
    Скриншоты

    Скриншот с названием фильма и другие скрины с русской локализацией

    Запасные скриншоты

    Скриншот с названием фильма и другие скрины с русской локализацией

    Подробные технические данные

    x264

    raw [info]: 736x414p 1:1 @ 24000/1001 fps (cfr)
    x264 [info]: using SAR=1/1
    x264 [info]: using cpu capabilities: MMX2 SSE2Fast SSSE3 SSE4.2 AVX
    x264 [info]: profile High, level 3.1
    x264 [info]: frame I:1327 Avg QP:17.46 size: 46529
    x264 [info]: frame P:33858 Avg QP:21.35 size: 10255
    x264 [info]: frame B:101233 Avg QP:23.11 size: 2817
    x264 [info]: consecutive B-frames: 3.1% 3.3% 10.0% 42.0% 16.0% 20.7% 1.5% 0.8% 0.3% 1.2% 0.2% 0.1% 0.1% 0.1% 0.1% 0.5%
    x264 [info]: mb I I16..4: 8.0% 63.9% 28.1%
    x264 [info]: mb P I16..4: 1.9% 7.0% 1.6% P16..4: 36.6% 13.7% 14.7% 1.0% 0.4% skip:23.2%
    x264 [info]: mb B I16..4: 0.2% 0.6% 0.2% B16..8: 28.4% 6.9% 2.6% direct: 2.7% skip:58.5% L0:39.0% L1:44.1% BI:17.0%
    x264 [info]: 8x8 transform intra:65.7% inter:58.5%
    x264 [info]: direct mvs spatial:95.4% temporal:4.6%
    x264 [info]: coded y,uvDC,uvAC intra: 72.7% 79.6% 59.8% inter: 12.2% 13.8% 7.5%
    x264 [info]: i16 v,h,dc,p: 34% 17% 5% 44%
    x264 [info]: i8 v,h,dc,ddl,ddr,vr,hd,vl,hu: 11% 14% 9% 8% 11% 11% 13% 10% 13%
    x264 [info]: i4 v,h,dc,ddl,ddr,vr,hd,vl,hu: 11% 13% 4% 8% 14% 12% 14% 10% 13%
    x264 [info]: i8c dc,h,v,p: 34% 29% 18% 20%
    x264 [info]: Weighted P-Frames: Y:2.3% UV:1.5%
    x264 [info]: ref P L0: 57.4% 12.1% 12.1% 5.4% 3.7% 2.8% 2.2% 1.2% 1.0% 0.8% 0.6% 0.5% 0.0% 0.0%
    x264 [info]: ref B L0: 78.0% 10.7% 4.7% 2.1% 1.5% 1.1% 0.8% 0.4% 0.3% 0.2% 0.1%
    x264 [info]: ref B L1: 95.0% 5.0%
    x264 [info]: kb/s:976.01
    General
    Unique ID : 185567866837421410379169504306846398233 (0x8B9B12369CE0E9A49046B03307C67719)
    Complete name : Inside Out (2015).mkv
    Format : Matroska
    Format version : Version 4 / Version 2
    File size : 750 MiB
    Duration : 1h 34mn
    Overall bit rate : 1 105 Kbps
    Movie name : Головоломка / Inside Out (2015) Локализованный видеоряд
    Encoded date : UTC 2016-06-14 09:46:51
    Writing application : mkvmerge v8.1.0 ('Psychedelic Postcard') 64bit
    Writing library : libebml v1.3.1 + libmatroska v1.4.2
    Cover : Yes
    Attachments : cover.png
    Video
    ID : 1
    Format : AVC
    Format/Info : Advanced Video Codec
    Format profile : High@L3.1
    Format settings, CABAC : Yes
    Format settings, ReFrames : 12 frames
    Codec ID : V_MPEG4/ISO/AVC
    Duration : 1h 34mn
    Bit rate : 976 Kbps
    Width : 736 pixels
    Height : 414 pixels
    Display aspect ratio : 16:9
    Frame rate mode : Constant
    Frame rate : 23.976 (24000/1001) fps
    Color space : YUV
    Chroma subsampling : 4:2:0
    Bit depth : 8 bits
    Scan type : Progressive
    Bits/(Pixel*Frame) : 0.134
    Stream size : 662 MiB (88%)
    Title : Inside Out (2015) By optik.1557
    Writing library : x264 core 148 r2692kMod 64f4e24
    Encoding settings : cabac=1 / ref=12 / deblock=1:-3:-2 / analyse=0x3:0x133 / me=umh / subme=10 / psy=1 / fade_compensate=0.00 / psy_rd=1.05:0.03 / mixed_ref=1 / me_range=48 / chroma_me=1 / trellis=2 / 8x8dct=1 / cqm=0 / deadzone=21,11 / fast_pskip=0 / chroma_qp_offset=-3 / threads=6 / lookahead_threads=1 / sliced_threads=0 / nr=0 / decimate=0 / interlaced=0 / bluray_compat=0 / constrained_intra=0 / fgo=0 / bframes=15 / b_pyramid=2 / b_adapt=2 / b_bias=0 / direct=3 / weightb=1 / open_gop=0 / weightp=2 / keyint=250 / keyint_min=23 / scenecut=40 / intra_refresh=0 / rc_lookahead=60 / rc=2pass / mbtree=0 / bitrate=976 / ratetol=1.0 / qcomp=0.60 / qpmin=0 / qpmax=69 / qpstep=4 / cplxblur=20.0 / qblur=0.5 / vbv_maxrate=14000 / vbv_bufsize=14000 / nal_hrd=none / filler=0 / ip_ratio=1.40 / pb_ratio=1.30 / aq=2:0.90
    Language : English
    Default : Yes
    Forced : No
    Audio #1
    ID : 2
    Format : AAC
    Format/Info : Advanced Audio Codec
    Format profile : HE-AAC / LC
    Codec ID : A_AAC
    Duration : 1h 34mn
    Bit rate : 62.7 Kbps
    Channel(s) : 2 channels
    Channel positions : Front: L R
    Sampling rate : 48.0 KHz / 24.0 KHz
    Frame rate : 23.438 fps (1024 spf)
    Compression mode : Lossy
    Stream size : 42.5 MiB (6%)
    Title : Дубляж. 64 Kbps
    Language : Russian
    Default : Yes
    Forced : No
    Audio #2
    ID : 3
    Format : AAC
    Format/Info : Advanced Audio Codec
    Format profile : HE-AAC / LC
    Codec ID : A_AAC
    Duration : 1h 34mn
    Bit rate : 62.7 Kbps
    Channel(s) : 2 channels
    Channel positions : Front: L R
    Sampling rate : 48.0 KHz / 24.0 KHz
    Frame rate : 23.438 fps (1024 spf)
    Compression mode : Lossy
    Stream size : 42.5 MiB (6%)
    Title : Original. 64 Kbps
    Language : English
    Default : No
    Forced : No
    Text #1
    ID : 4
    Format : UTF-8
    Codec ID : S_TEXT/UTF8
    Codec ID/Info : UTF-8 Plain Text
    Duration : 1h 26mn
    Bit rate : 113 bps
    Count of elements : 1255
    Stream size : 72.4 KiB (0%)
    Language : Russian
    Default : No
    Forced : No
    Text #2
    ID : 5
    Format : UTF-8
    Codec ID : S_TEXT/UTF8
    Codec ID/Info : UTF-8 Plain Text
    Duration : 1h 26mn
    Bit rate : 75 bps
    Count of elements : 1266
    Stream size : 48.4 KiB (0%)
    Language : French
    Default : No
    Forced : No
    Text #3
    ID : 6
    Format : UTF-8
    Codec ID : S_TEXT/UTF8
    Codec ID/Info : UTF-8 Plain Text
    Duration : 1h 26mn
    Bit rate : 74 bps
    Count of elements : 1366
    Stream size : 47.4 KiB (0%)
    Language : English
    Default : No
    Forced : No
    Text #4
    ID : 7
    Format : UTF-8
    Codec ID : S_TEXT/UTF8
    Codec ID/Info : UTF-8 Plain Text
    Duration : 1h 27mn
    Bit rate : 86 bps
    Count of elements : 1845
    Stream size : 55.1 KiB (0%)
    Title : SDH
    Language : English
    Default : No
    Forced : No
    Text #5
    ID : 8
    Format : UTF-8
    Codec ID : S_TEXT/UTF8
    Codec ID/Info : UTF-8 Plain Text
    Duration : 1h 30mn
    Bit rate : 146 bps
    Count of elements : 1965
    Stream size : 96.9 KiB (0%)
    Title : Comentary
    Language : English
    Default : No
    Forced : No
    Menu
    00:00:00.000 : ru:Chapter 1
    00:07:22.692 : ru:Chapter 2
    00:11:36.779 : ru:Chapter 3
    00:15:46.403 : ru:Chapter 4
    00:20:02.242 : ru:Chapter 5
    00:25:21.436 : ru:Chapter 6
    00:26:47.063 : ru:Chapter 7
    00:30:10.183 : ru:Chapter 8
    00:34:45.791 : ru:Chapter 9
    00:36:02.285 : ru:Chapter 10
    00:37:45.304 : ru:Chapter 11
    00:41:27.359 : ru:Chapter 12
    00:43:35.612 : ru:Chapter 13
    00:45:19.508 : ru:Chapter 14
    00:46:51.850 : ru:Chapter 15
    00:50:02.457 : ru:Chapter 16
    00:51:34.341 : ru:Chapter 17
    00:56:12.160 : ru:Chapter 18
    01:00:03.683 : ru:Chapter 19
    01:01:17.840 : ru:Chapter 20
    01:03:50.367 : ru:Chapter 21
    01:06:27.191 : ru:Chapter 22
    01:11:15.771 : ru:Chapter 23
    01:13:40.540 : ru:Chapter 24
    01:15:38.658 : ru:Chapter 25
    01:20:00.336 : ru:Chapter 26
    01:23:57.198 : ru:Chapter 27
    01:26:18.339 : ru:Chapter 28
    Скачать .torrent

    Скачать торрент-файл бесплатно и на максимальной скорости!

    Как скачивать? · Что такое торрент? · Рейтинг и ограничения

    !ВНИМАНИЕ!
    Сайт не распространяет и не хранит электронные версии произведений, а занимается лишь лишь предоставлением доступа к создаваемому пользователями каталогу ссылок на торрент-файлы, которые содержат только списки хеш-сумм, убедительная просьба с жалобами обращаться напрямую к пользователю. Файлы для обмена на трекере предоставлены пользователями сайта, и администрация не несёт ответственности за их содержание. Просьба не заливать файлы, защищенные авторскими правами, а также файлы нелегального содержания!


    _________________
    [Профиль] [ЛС]
    Показать сообщения:    
    Ответить на тему

    Текущее время: Сегодня, в 04:14

    Часовой пояс: GMT + 2



    Вы не можете начинать темы
    Вы не можете отвечать на сообщения
    Вы не можете редактировать свои сообщения
    Вы не можете удалять свои сообщения
    Вы не можете голосовать в опросах
    Вы не можете прикреплять файлы к сообщениям
    Вы не можете скачивать файлы