BitTorrentTracker PerecTracker.org
BitTorrentTracker PerecTracker.org
    
Регистрация  ·  Вход
 
 · 
Забыли пароль?

  • [ATV3] Здравствуйте, меня зовут Дорис / Hello, My Name Is Doris (Майкл Шоуолтер / Michael Showalter) [2015, США, Драма, мелодрама, комедия, WEB-DL, HD (1080p)] MVO + Original + sub (rus, ukr)

    Ответить на тему
     
    Автор Сообщение

    rechyn

    Создавать темы 14-Июн-2016 16:55

           

    [Цитировать]

    Здравствуйте, меня зовут Дорис / Hello, My Name Is Doris
    «She's not ready to act her age»
    0.000 / 10 7.10 / 10
    -Год выпуска: 2015
    Страна: США
    Жанр: Драма, мелодрама, комедия
    Продолжительность: 01:30:05
    Перевод: Многоголосый закадровый (iTunes)
    Оригинальная аудиодорожка: Есть
    Cубтитры: Русские форсированные, Русские, Украинские
    Режиссёр: Майкл Шоуолтер
    Сценарий: Laura Terruso, Майкл Шоуолтер
    Продюсер: Дэниэл Краун, Кевин Манн, Рива Маркер
    Оператор: Брайан Бёргойн
    Композитор: Брайан Х. Ким
    Художник: Мелани Джонс, Катрин Девани, Ив МакКарни
    Монтаж: Роберт Нассау
    В ролях: Салли Филд, Макс Гринфилд, Edmund Lupinski, Бет Берс, Норма Майклс, Стивен Рут, Венди МакЛендон-Кови, Кумэйл Нанджиани, Ребекка Високки, Тайн Дейли
    Сборы в США: $14 329 714
    Мировая премьера: 14 марта 2015
    Описание: Дорис Миллер — типичный Нью-Йоркский офисный работник в возрасте за шестьдесят, после смерти своей матери начинает посещать семинары по самопомощи. Приняв советы от гуру мотивации, Дорис становится сексуально одержимой своим новым коллегой Джоном, который вдвое её моложе.-Качество исходника: WEB-DL 1080p (HDClub)
    Качество: WEB-DL
    Тип: HD (1080p)
    Контейнер: M4V
    Видео: H.264, 1916x1032, 1.85:1, 5 005 Kbps, 23.976 fps
    Аудио 1: Русский/Многоголосый закадровый (iTunes), AAC / 2.0 / 154 Kbps / 48.0 KHz
    Аудио 2: Английский/Оригинальная дорожка , AAC / 2.0 / 154 Kbps / 48.0 KHz
    Аудио 3: Русский/Многоголосый закадровый (iTunes), AC-3 / 5.1 / 384 Kbps / 48.0 KHz
    Аудио 4: Английский/Оригинальная дорожка , AC-3 / 5.1 / 384 Kbps / 48.0 KHz
    Субтитры 1: Русские форсированные
    Субтитры 2: Русские полные
    Субтитры 3: Украинские полные
    -

    iTunes Meta Tags

    Sort Name: Hello, My Name Is Doris
    XID: Apple:vendor_id:2015-845996
    contentID: 1086795656
    Copyright: © 2015 Retro Jumpsuit , LLC. All Rights Reserved.
    Screenwriters: Laura Terruso, Майкл Шоуолтер
    Producers: Дэниэл Краун, Кевин Манн, Рива Маркер
    Director: Майкл Шоуолтер
    Cast: Салли Филд, Макс Гринфилд, Edmund Lupinski, Бет Берс, Норма Майклс, Стивен Рут, Венди МакЛендон-Кови, Кумэйл Нанджиани, Ребекка Високки, Тайн Дейли
    Studio: Haven Entertainment
    Rating: 5
    Long Description: Дорис Миллер - типичный Нью-Йоркский офисный работник в возрасте за шестьдесят, после смерти своей матери начинает посещать семинары по самопомощи. Приняв советы от гуру мотивации, Дорис становится сексуально одержимой своим новым коллегой Джоном, который вдвое её моложе.
    Description: Дорис Миллер - типичный Нью-Йоркский офисный работник в возрасте за шестьдесят, после смерти своей матери начинает посещать семинары по самопомощи. Приняв советы от гуру мотивации, Дорис становится сексуально одержимой своим новым коллегой Джоном, который вдвое её моложе.
    Release Date: 2015-03-14T08:00:00Z
    Genre: Comedy
    Artist: Michael Showalter
    Name: Hello, My Name Is Doris

    MediaInfo

    General
    Complete name : /Users/imac/HandBrake/Hello.My.Name.Is.Doris.WEB-DL.1080p.m4v
    Format : MPEG-4
    Codec ID : M4V
    File size : 3.83 GiB
    Duration : 1h 30mn
    Overall bit rate mode : Variable
    Overall bit rate : 6 091 Kbps
    Movie name : Hello, My Name Is Doris
    Performer : Michael Showalter
    Director : Майкл Шоуолтер
    Actor : Салли Филд / Макс Гринфилд / Edmund Lupinski / Бет Берс / Норма Майклс / Стивен Рут / Венди МакЛендон-Кови / Кумэйл Нанджиани / Ребекка Високки / Тайн Дейли
    Screenplay by : Laura Terruso / Майкл Шоуолтер
    Producer : Дэниэл Краун / Кевин Манн / Рива Маркер
    Production studio : Haven Entertainment
    Genre : Comedy
    ContentType : Short Film
    Description : Дорис Миллер - типичный Нью-Йоркский офисный работник в возрасте за шестьдесят, после смерти своей матери начинает посещать семинары по самопомощи. Приняв советы от гуру мотивации, Дорис становится сексуально одержимой своим новым коллегой Джоном, который вдвое её моложе.
    Recorded date : UTC 2015-03-14 08:00:00
    Encoded date : UTC 2016-06-14 09:15:27
    Tagged date : UTC 2016-06-14 09:18:01
    Copyright : © 2015 Retro Jumpsuit , LLC. All Rights Reserved.
    Cover : Yes
    Rating : None
    Title/Sort : Hello, My Name Is Doris
    LongDescription : Дорис Миллер - типичный Нью-Йоркский офисный работник в возрасте за шестьдесят, после смерти своей матери начинает посещать семинары по самопомощи. Приняв советы от гуру мотивации, Дорис становится сексуально одержимой своим новым коллегой Джоном, который вдвое её моложе.
    AppleStoreCatalogID : 1086795656
    Vendor : Apple:vendor_id:2015-845996
    ContentRating : mpaa|R|400|
    Video #1
    ID : 1
    Format : AVC
    Format/Info : Advanced Video Codec
    Format profile : High@L4
    Format settings, CABAC : Yes
    Format settings, ReFrames : 4 frames
    Codec ID : avc1
    Codec ID/Info : Advanced Video Coding
    Duration : 1h 30mn
    Source duration : 1h 30mn
    Bit rate : 5 005 Kbps
    Width : 1 916 pixels
    Height : 1 032 pixels
    Display aspect ratio : 1.85:1
    Frame rate mode : Variable
    Frame rate : 23.976 fps
    Minimum frame rate : 23.810 fps
    Maximum frame rate : 24.390 fps
    Color space : YUV
    Chroma subsampling : 4:2:0
    Bit depth : 8 bits
    Scan type : Progressive
    Bits/(Pixel*Frame) : 0.106
    Stream size : 3.15 GiB (82%)
    Source stream size : 3.15 GiB (82%)
    Title : Main Program
    Language : English
    Encoded date : UTC 2016-06-14 09:15:27
    Tagged date : UTC 2016-06-14 09:15:50
    Color range : Limited
    Color primaries : BT.709
    Transfer characteristics : BT.709
    Matrix coefficients : BT.709
    Video #2
    ID : 10
    Format : JPEG
    Codec ID : jpeg
    Duration : 1h 30mn
    Bit rate mode : Variable
    Bit rate : 999 bps
    Width : 640 pixels
    Height : 344 pixels
    Display aspect ratio : 1.85:1
    Frame rate mode : Variable
    Frame rate : 0.003 fps
    Minimum frame rate : 0.002 fps
    Maximum frame rate : 0.004 fps
    Color space : YUV
    Chroma subsampling : 4:2:0
    Bit depth : 8 bits
    Compression mode : Lossy
    Bits/(Pixel*Frame) : 1.513
    Stream size : 650 KiB (0%)
    Title : Chapter Images
    Language : English
    Encoded date : UTC 2016-06-14 09:15:56
    Tagged date : UTC 2016-06-14 09:15:57
    Audio #1
    ID : 2
    Format : AAC
    Format/Info : Advanced Audio Codec
    Format profile : LC
    Codec ID : 40
    Duration : 1h 29mn
    Bit rate mode : Variable
    Bit rate : 154 Kbps
    Maximum bit rate : 237 Kbps
    Channel(s) : 2 channels
    Channel positions : Front: L R
    Sampling rate : 48.0 KHz
    Compression mode : Lossy
    Stream size : 99.3 MiB (3%)
    Title : Russian Stereo
    Language : Russian
    Encoded date : UTC 2016-06-14 09:15:27
    Tagged date : UTC 2016-06-14 09:15:50
    Audio #2
    ID : 3
    Format : AAC
    Format/Info : Advanced Audio Codec
    Format profile : LC
    Codec ID : 40
    Duration : 1h 29mn
    Bit rate mode : Variable
    Bit rate : 154 Kbps
    Maximum bit rate : 238 Kbps
    Channel(s) : 2 channels
    Channel positions : Front: L R
    Sampling rate : 48.0 KHz
    Compression mode : Lossy
    Stream size : 99.1 MiB (3%)
    Title : English Stereo
    Language : English
    Encoded date : UTC 2016-06-14 09:15:27
    Tagged date : UTC 2016-06-14 09:15:50
    Audio #3
    ID : 4
    Format : AC-3
    Format/Info : Audio Coding 3
    Mode extension : CM (complete main)
    Format settings, Endianness : Big
    Codec ID : ac-3
    Duration : 1h 29mn
    Bit rate mode : Constant
    Bit rate : 384 Kbps
    Channel(s) : 6 channels
    Channel positions : Front: L C R, Side: L R, LFE
    Sampling rate : 48.0 KHz
    Bit depth : 16 bits
    Compression mode : Lossy
    Stream size : 247 MiB (6%)
    Title : Russian DD 5.1
    Language : Russian
    Encoded date : UTC 2016-06-14 09:15:27
    Tagged date : UTC 2016-06-14 09:15:50
    Audio #4
    ID : 5
    Format : AC-3
    Format/Info : Audio Coding 3
    Mode extension : CM (complete main)
    Format settings, Endianness : Big
    Codec ID : ac-3
    Duration : 1h 29mn
    Bit rate mode : Constant
    Bit rate : 384 Kbps
    Channel(s) : 6 channels
    Channel positions : Front: L C R, Side: L R, LFE
    Sampling rate : 48.0 KHz
    Bit depth : 16 bits
    Compression mode : Lossy
    Stream size : 247 MiB (6%)
    Title : English DD 5.1
    Language : English
    Encoded date : UTC 2016-06-14 09:15:27
    Tagged date : UTC 2016-06-14 09:15:50
    Text #1
    ID : 6
    Format : Timed Text
    Muxing mode : sbtl
    Codec ID : tx3g
    Duration : 10mn 54s
    Bit rate mode : Variable
    Bit rate : 2 bps
    Stream size : 138 Bytes (0%)
    Title : Russian forced
    Language : Russian
    Encoded date : UTC 2016-06-14 09:15:27
    Tagged date : UTC 2016-06-14 09:15:28
    Text #2
    ID : 7
    Format : Timed Text
    Muxing mode : sbtl
    Codec ID : tx3g
    Duration : 1h 25mn
    Bit rate mode : Variable
    Bit rate : 121 bps
    Stream size : 75.9 KiB (0%)
    Title : Russian full
    Language : Russian
    Encoded date : UTC 2016-06-14 09:15:27
    Tagged date : UTC 2016-06-14 09:15:48
    Text #3
    ID : 8
    Format : Timed Text
    Muxing mode : sbtl
    Codec ID : tx3g
    Duration : 1h 25mn
    Bit rate mode : Variable
    Bit rate : 109 bps
    Stream size : 68.9 KiB (0%)
    Title : Ukrainian full
    Language : Ukrainian
    Encoded date : UTC 2016-06-14 09:15:27
    Tagged date : UTC 2016-06-14 09:15:48
    Menu #1
    00:00:00.000 : 1
    00:05:30.372 : 2
    00:12:32.460 : 3
    00:17:32.802 : 4
    00:21:53.395 : 5
    00:26:49.107 : 6
    00:32:57.683 : 7
    00:40:10.991 : 8
    00:44:58.319 : 9
    00:48:44.044 : 10
    00:54:30.265 : 11
    01:00:31.584 : 12
    01:06:35.447 : 13
    01:10:59.335 : 14
    01:16:02.262 : 15
    01:21:52.528 : 16
    Menu #2
    ID : 9
    Codec ID : text
    Duration : 1h 30mn
    Language : English
    Encoded date : UTC 2016-06-14 09:15:50
    Tagged date : UTC 2016-06-14 09:15:50
    00:00:00.000 : 1
    00:05:30.372 : 2
    00:12:32.460 : 3
    00:17:32.802 : 4
    00:21:53.395 : 5
    00:26:49.107 : 6
    00:32:57.683 : 7
    00:40:10.991 : 8
    00:44:58.319 : 9
    00:48:44.044 : 10
    00:54:30.265 : 11
    01:00:31.584 : 12
    01:06:35.447 : 13
    01:10:59.335 : 14
    01:16:02.262 : 15
    01:21:52.528 : 16
    Bit rate mode : VBR

    Скриншоты

    -

    Релиз подготовлен для просмотра на Apple TV, iPad, iPhone, iPod Touch.
    Для просмотра данного релиза на компьютере с ОС Windows рекомендуется использовать VLC media player
    Скачать .torrent

    Скачать торрент-файл бесплатно и на максимальной скорости!

    Как скачивать? · Что такое торрент? · Рейтинг и ограничения

    !ВНИМАНИЕ!
    Сайт не распространяет и не хранит электронные версии произведений, а занимается лишь лишь предоставлением доступа к создаваемому пользователями каталогу ссылок на торрент-файлы, которые содержат только списки хеш-сумм, убедительная просьба с жалобами обращаться напрямую к пользователю. Файлы для обмена на трекере предоставлены пользователями сайта, и администрация не несёт ответственности за их содержание. Просьба не заливать файлы, защищенные авторскими правами, а также файлы нелегального содержания!


    _________________
    [Профиль] [ЛС]
    Показать сообщения:    
    Ответить на тему

    Текущее время: Сегодня, в 02:07

    Часовой пояс: GMT + 2



    Вы не можете начинать темы
    Вы не можете отвечать на сообщения
    Вы не можете редактировать свои сообщения
    Вы не можете удалять свои сообщения
    Вы не можете голосовать в опросах
    Вы не можете прикреплять файлы к сообщениям
    Вы не можете скачивать файлы