BitTorrentTracker PerecTracker.org
BitTorrentTracker PerecTracker.org
    
Регистрация  ·  Вход
 
 · 
Забыли пароль?

  • Здравствуйте, меня зовут Дорис / Hello, My Name Is Doris (Майкл Шоуолтер / Michael Showalter) [2015, США, Драма, мелодрама, комедия, HDRip] MVO

    Ответить на тему
     
    Автор Сообщение

    Light

    Создавать темы 14-Июн-2016 16:55

           

    [Цитировать]

    Здравствуйте, меня зовут Дорис / Hello, My Name Is Doris
    Страна: США
    Жанр: Драма, мелодрама, комедия
    Год выпуска: 2015
    Продолжительность: 01:30:11
    Перевод: Профессиональный (многоголосый закадровый) iTunes
    Cубтитры: нет
    Режиссер: Майкл Шоуолтер / Michael Showalter
    В ролях: Салли Филд, Макс Гринфилд, , Бет Берс, Норма Майклс, Стивен Рут, Венди МакЛендон-Кови, Кумэйл Нанджиани, Ребекка Високки, Тайн Дейли
    Описание: Обычная сотрудница одного из тысяч офисов Нью-Йорка Дорис Миллер - пожилая женщина за шестьдесят, переживающая болезненную утрату матери, вместе с которой она жила всю жизнь. Дорис начинает посещать курсы самопомощи, а набравшись там сомнительных советов влюбляется в нового коллегу с работы Джона Фримонта - молодого и обаятельного художественного руководителя фирмы, годящегося женщине, в лучшем случае, в сыновья. При первой же встрече в загруженном до отказа лифте Миллер мгновенно влюбляется в юного Фримонта и теперь всё её мысли лишь о нём. -- Женщина при поддержке тринадцатилетней внучки лучшей подруги перекапывает всю Сеть и находит информацию о любимых местах, увлечениях и всём-всём, что там есть на Джона. Желая заполучить объект вожделения любой ценой, Дорис начинает молодёжно одеваться и организовывать случайные встречи в Фримонтом там, где он часто появляется. Нелепые вид и поведение ссорят её с близкими людьми, зато для окружения Джона и его самого Дорис становится неотъемлемой частью, но к чему это приведёт
    Рейтинг : -- IMDB / IMDB 7.0
    Сэмпл: http://multi-up.com/1105683
    Качество видео: HDRip
    Формат видео: AVI
    Видео: XviD 73, 688x368, (2,35:1), 23,976 fps, 1025 Кбит/сек, 8 бит
    Аудио: Русский (MP3, 2 ch, 48,0 KHz, 128 Kbps)

    MediaInfo

    Общее
    Полное имя : F:\Видеофильмы\В и д е о\Здравствуйте, меня зовут Дорис (Драма, мелодрама, комедия 2015).avi
    Формат : AVI
    Формат/Информация : Audio Video Interleave
    Размер файла : 748 Мбайт
    Продолжительность : 1 ч. 30 м.
    Общий поток : 1159 Кбит/сек
    Видео
    Идентификатор : 0
    Формат : MPEG-4 Visual
    Профиль формата : Advanced Simple@L5
    Параметр BVOP формата : 1
    Параметр QPel формата : Нет
    Параметр GMC формата : Без точки перехода
    Параметр матрицы формата : Выборочная
    Идентификатор кодека : XVID
    Идентификатор кодека/Подсказка : XviD
    Продолжительность : 1 ч. 30 м.
    Битрейт : 1025 Кбит/сек
    Ширина : 688 пикселей
    Высота : 368 пикселей
    Соотношение сторон : 2,35:1
    Частота кадров : 23,976 (24000/1001) кадра/сек
    Цветовое пространство : YUV
    Субдискретизация насыщенности : 4:2:0
    Битовая глубина : 8 бит
    Тип развёртки : Прогрессивная
    Метод сжатия : С потерями
    Бит/(Пиксели*Кадры) : 0.169
    Размер потока : 661 Мбайт (88%)
    Библиотека кодирования : XviD 73
    Аудио
    Идентификатор : 1
    Формат : MPEG Audio
    Версия формата : Version 1
    Профиль формата : Layer 3
    Режим : Joint stereo
    Расширение режима : MS Stereo
    Идентификатор кодека : 55
    Идентификатор кодека/Подсказка : MP3
    Продолжительность : 1 ч. 30 м.
    Вид битрейта : Постоянный
    Битрейт : 128 Кбит/сек
    Каналы : 2 канала
    Частота : 48,0 КГц
    Метод сжатия : С потерями
    Размер потока : 82,6 Мбайт (11%)
    Выравнивание : Соединение по промежуткам
    Продолжительность промежутка : 167 мс. (4,00 видеокадра)
    Время предзагрузки промежутка : 216 мс.
    Заголовок : iTunes
    Библиотека кодирования : LAME3.99r
    Настройки программы : -m j -V 4 -q 2 -lowpass 17 -b 128

    Скриншот c названием фильма

    Скриншоты

    Скачать .torrent

    Скачать торрент-файл бесплатно и на максимальной скорости!

    Как скачивать? · Что такое торрент? · Рейтинг и ограничения

    !ВНИМАНИЕ!
    Сайт не распространяет и не хранит электронные версии произведений, а занимается лишь лишь предоставлением доступа к создаваемому пользователями каталогу ссылок на торрент-файлы, которые содержат только списки хеш-сумм, убедительная просьба с жалобами обращаться напрямую к пользователю. Файлы для обмена на трекере предоставлены пользователями сайта, и администрация не несёт ответственности за их содержание. Просьба не заливать файлы, защищенные авторскими правами, а также файлы нелегального содержания!


    _________________
    [Профиль] [ЛС]
    Показать сообщения:    
    Ответить на тему

    Текущее время: Сегодня, в 14:27

    Часовой пояс: GMT + 2



    Вы не можете начинать темы
    Вы не можете отвечать на сообщения
    Вы не можете редактировать свои сообщения
    Вы не можете удалять свои сообщения
    Вы не можете голосовать в опросах
    Вы не можете прикреплять файлы к сообщениям
    Вы не можете скачивать файлы