BitTorrentTracker PerecTracker.org
BitTorrentTracker PerecTracker.org
    
Регистрация  ·  Вход
 
 · 
Забыли пароль?

  • Здравствуйте, меня зовут Дорис / Hello, My Name Is Doris (Майкл Шоуолтер / Michael Showalter) [2015, США, драма, мелодрама, комедия, HDRip] MVO (iTunes)

    Ответить на тему
     
    Автор Сообщение

    Light

    Создавать темы 14-Июн-2016 16:55

           

    [Цитировать]

    Здравствуйте, меня зовут Дорис / Hello, My Name Is Doris
    Страна: США, Frame Switch, Haven Entertainment, Red Crown Productions
    Жанр: драма, мелодрама, комедия
    Год выпуска: 2015
    Продолжительность: 01:30:11
    Перевод: Профессиональный (многоголосый закадровый) iTunes
    Cубтитры: нет
    Режиссер: Майкл Шоуолтер / Michael Showalter
    В ролях: Салли Филд, Макс Гринфилд, , Бет Берс, Норма Майклс, Стивен Рут, Венди МакЛендон-Кови, Кумэйл Нанджиани, Ребекка Високки, Тайн Дейли
    Описание: Дорис Миллер - типичный Нью-Йоркский офисный работник в возрасте за шестьдесят, после смерти своей матери начинает посещать семинары по самопомощи. Приняв советы от гуру мотивации, Дорис становится сексуально одержимой своим новым коллегой Джоном, который вдвое её моложе.
    Сэмпл: http://multi-up.com/1105684
    Качество видео: HDRip
    Формат видео: AVI
    Видео: 720x384 (1.88:1), 23.976 fps, XviD build 73 ~1929 kbps avg, 0.29 bit/pixel
    Аудио: 48 kHz, AC3 Dolby Digital, 3/2 (L,C,R,l,r) + LFE ch, ~384 kbps

    MediaInfo

    Общее
    Полное имя : D:\загрузки\Hello.My.Name.Is.Doris.2015.HDRip.1.46Gb.avi
    Формат : AVI
    Формат/Информация : Audio Video Interleave
    Размер файла : 1,46 Гбайт
    Продолжительность : 1 ч. 30 м.
    Общий поток : 2321 Кбит/сек
    Видео
    Идентификатор : 0
    Формат : MPEG-4 Visual
    Профиль формата : Advanced Simple@L5
    Параметр BVOP формата : 1
    Параметр QPel формата : Нет
    Параметр GMC формата : Без точки перехода
    Параметр матрицы формата : Выборочная
    Идентификатор кодека : XVID
    Идентификатор кодека/Подсказка : XviD
    Продолжительность : 1 ч. 30 м.
    Битрейт : 1930 Кбит/сек
    Ширина : 720 пикселей
    Высота : 384 пикселя
    Соотношение сторон : 1,85:1
    Частота кадров : 23,976 (24000/1001) кадра/сек
    Цветовое пространство : YUV
    Субдискретизация насыщенности : 4:2:0
    Битовая глубина : 8 бит
    Тип развёртки : Прогрессивная
    Метод сжатия : С потерями
    Бит/(Пиксели*Кадры) : 0.291
    Размер потока : 1,22 Гбайт (83%)
    Библиотека кодирования : XviD 73
    Аудио
    Идентификатор : 1
    Формат : AC-3
    Формат/Информация : Audio Coding 3
    Расширение режима : CM (complete main)
    Параметр Endianness формата : Big
    Идентификатор кодека : 2000
    Продолжительность : 1 ч. 30 м.
    Вид битрейта : Постоянный
    Битрейт : 384 Кбит/сек
    Каналы : 6 каналов
    Расположение каналов : Front: L C R, Side: L R, LFE
    Частота : 48,0 КГц
    Частота кадров : 31,250 кадров/сек (1536 spf)
    Метод сжатия : С потерями
    Размер потока : 248 Мбайт (17%)
    Выравнивание : Соединение по промежуткам
    Продолжительность промежутка : 64 мс. (1,53 видеокадра)
    Время предзагрузки промежутка : 192 мс.
    Заголовок : iTunes

    Скриншот c названием фильма

    Скриншоты

    Скачать .torrent

    Скачать торрент-файл бесплатно и на максимальной скорости!

    Как скачивать? · Что такое торрент? · Рейтинг и ограничения

    !ВНИМАНИЕ!
    Сайт не распространяет и не хранит электронные версии произведений, а занимается лишь лишь предоставлением доступа к создаваемому пользователями каталогу ссылок на торрент-файлы, которые содержат только списки хеш-сумм, убедительная просьба с жалобами обращаться напрямую к пользователю. Файлы для обмена на трекере предоставлены пользователями сайта, и администрация не несёт ответственности за их содержание. Просьба не заливать файлы, защищенные авторскими правами, а также файлы нелегального содержания!


    _________________
    [Профиль] [ЛС]
    Показать сообщения:    
    Ответить на тему

    Текущее время: Сегодня, в 18:06

    Часовой пояс: GMT + 2



    Вы не можете начинать темы
    Вы не можете отвечать на сообщения
    Вы не можете редактировать свои сообщения
    Вы не можете удалять свои сообщения
    Вы не можете голосовать в опросах
    Вы не можете прикреплять файлы к сообщениям
    Вы не можете скачивать файлы