BitTorrentTracker PerecTracker.org
BitTorrentTracker PerecTracker.org
    
Регистрация  ·  Вход
 
 · 
Забыли пароль?

  • Игра / Сезон: 1 / Серии: 1-20 из 20 (Георгий Гаврилов, Сергей Лесогоров, Геннадий Иванов, Илья Куликов, Тимур Алпатов) [2011, Детектив, HDTVRip]

    Ответить на тему
     
    Автор Сообщение

    rechyn

    Создавать темы 14-Июн-2016 16:08

           

    [Цитировать]

    ИграГод выпуска: 2011
    Производство: DIXI TV
    Жанр: Детектив
    Продолжительность: 00:50:00
    Субтитры: нет
    Режиссёр: Георгий Гаврилов, Сергей Лесогоров, Геннадий Иванов, Тимур Алпатов

    В ролях:
    Виталий Емашов, Павел Баршак, Иван Теплов, Дарья Повереннова, Наталья Левина, Владимир Фекленко, Спартак Сумченко, Мария Горбань, Андрей Лебедев, Георгий Сегал, Михаил Хмуров и др.
    Описание: От создателей телесериала "Глухарь"!
    Сериал расскажет о противостоянии двух невероятно сильных личностей: следователя ФСБ Белова и отчаянного бандита Смолина, которые, однажды столкнувшись, станут личными врагами на всю жизнь. Это будет захватывающий поединок между равновеликими фигурами, одного из которых ведут правильные и положительные чувства и эмоции, второго - самые низменные пороки и страсти.

    Фильмы

    1 сезон
    1 серия "Часы Фишера"
    2 серия "Белов"
    3 серия "Младший"
    4 серия "La legion etrangere"
    5 серия "Спящая ячейка"
    6 серия "Невидимая крепость"
    7 серия "Чёрный Ферзь"
    8 серия "Щепка"
    9 серия "Пешка"
    10 серия "Рокировка"
    11 серия "Убийца"
    12 серия "Размен"
    13 серия "Расплата"
    14 серия "Это бизнес"
    15 серия "Кровь невиновных"
    16 серия "Пат"
    17 серия "Эндшпиль"
    18 серия "Мой единственный друг"
    19 серия "Шах"
    20 серия "Мат"
    Релиз группа
    Все раздачи сериала
    Сэмпл
    Качество: HDTVRip
    Формат: AVI
    Видео кодек: XviD
    Аудио кодек: AC3
    Видео: 720x416 (1.80:1), 25 fps, XviD build 73 ~1498 kbps avg, 0.22 bit/pixel
    Аудио: 48 kHz, AC3 Dolby Digital, 2/0 (L,R) ch, ~192.00 kbps avg

    MI

    Общее
    Полное имя : F:\Video\Igra.2011.HDTVRip.Files-x.Igra.2011.HDTVRip.Files-x.avi
    Формат : AVI
    Формат/Информация : Audio Video Interleave
    Размер файла : 599 Мбайт
    Продолжительность : 42 м.
    Общий поток : 1973 Кбит/сек
    Программа кодирования : VirtualDubModRus 1.5.10.2 (build 2542/release)
    Библиотека кодирования : VirtualDubMod build 2542/release
    Видео
    Идентификатор : 0
    Формат : MPEG-4 Visual
    Профиль формата : Advanced Simple@L5
    Параметр BVOP формата : 1
    Параметр QPel формата : Нет
    Параметр GMC формата : Без точки перехода
    Параметр матрицы формата : Выборочная
    Идентификатор кодека : XVID
    Идентификатор кодека/Подсказка : XviD
    Продолжительность : 42 м.
    Битрейт : 1771 Кбит/сек
    Ширина : 720 пикселей
    Высота : 416 пикселей
    Соотношение сторон : 1,731
    Частота кадров : 25,000 кадров/сек
    Цветовое пространство : YUV
    Субдискретизация насыщенности : 4:2:0
    Битовая глубина : 8 бит
    Тип развёртки : Прогрессивная
    Метод сжатия : С потерями
    Бит/(Пиксели*Кадры) : 0.237
    Размер потока : 538 Мбайт (90%)
    Библиотека кодирования : XviD 73
    Аудио
    Идентификатор : 1
    Формат : AC-3
    Формат/Информация : Audio Coding 3
    Расширение режима : CM (complete main)
    Параметр Endianness формата : Big
    Идентификатор кодека : 2000
    Продолжительность : 42 м.
    Вид битрейта : Постоянный
    Битрейт : 192 Кбит/сек
    Каналы : 2 канала
    Расположение каналов : Front: L R
    Частота : 48,0 КГц
    Битовая глубина : 16 бит
    Метод сжатия : С потерями
    Размер потока : 58,3 Мбайт (10%)
    Выравнивание : Разделение по промежуткам
    Продолжительность промежутка : 40 мс. (1,00 видеокадр)
    Время предзагрузки промежутка : 500 мс.

    Скриншоты


    Скачать .torrent

    Скачать торрент-файл бесплатно и на максимальной скорости!

    Как скачивать? · Что такое торрент? · Рейтинг и ограничения

    !ВНИМАНИЕ!
    Сайт не распространяет и не хранит электронные версии произведений, а занимается лишь лишь предоставлением доступа к создаваемому пользователями каталогу ссылок на торрент-файлы, которые содержат только списки хеш-сумм, убедительная просьба с жалобами обращаться напрямую к пользователю. Файлы для обмена на трекере предоставлены пользователями сайта, и администрация не несёт ответственности за их содержание. Просьба не заливать файлы, защищенные авторскими правами, а также файлы нелегального содержания!


    _________________
    [Профиль] [ЛС]
    Показать сообщения:    
    Ответить на тему

    Текущее время: Сегодня, в 08:30

    Часовой пояс: GMT + 2



    Вы не можете начинать темы
    Вы не можете отвечать на сообщения
    Вы не можете редактировать свои сообщения
    Вы не можете удалять свои сообщения
    Вы не можете голосовать в опросах
    Вы не можете прикреплять файлы к сообщениям
    Вы не можете скачивать файлы