Register  ·  Log in
Forgot password?

  • Иллюзия обмана / Now You See Me (Луи Летерье / Louis Leterrier) [2013, США, Триллер, криминал, BDRip] [Театральная версия / Theatrical cut] Dub

    Reply to topic
    Author Message


    Post 14-Jun-2016 15:07



    Иллюзия обмана / Now You See Me
    «Чем вы ближе, тем меньше вы видите.»
    -Год выхода: 2013
    Выпущено: Франция, США / Summit Entertainment
    Жанр: триллер, криминал
    Продолжительность: 01:55:21
    Перевод: Профессиональный (полное дублирование) BD RUS |Лицензия|
    Субтитры: нет-Режиссер:
    Луи Летерье / Louis Leterrier-В ролях:
    Марк Руффало (Dylan Rhodes), Джесси Айзенберг (J. Daniel Atlas), Вуди Харрельсон (Merritt McKinney), Айла Фишер (Henley Reeves), Дэйв Франко (Jack Wilder), Мелани Лоран (Alma Dray), Морган Фриман (Thaddeus Bradley), Майкл Кейн (Arthur Tressler), Майкл Келли (Agent Fuller), Коммон (Evans)-О фильме:
    Команда лучших иллюзионистов мира проворачивает дерзкие ограбления прямо во время своих шоу, играя в кошки-мышки с агентами ФБР.- | | Сэмпл |-Качество: BDRip [BDRemux | 1080p | HDCLUB]
    Формат: AVI
    Видео: 720x304 (2.37:1), 23.976 fps, XviD build 73 ~1424 kbps avg, 0.27 bit/pixel
    Аудио: 48 kHz, AC3 Dolby Digital, 3/2 (L,C,R,l,r) + LFE ch, ~384.00 kbps avg




    Complete name                            : D:\Illuziya_obmana_2013_BDRip_TC_by_Dalemake.avi
    Format                                   : AVI
    Format/Info                              : Audio Video Interleave
    File size                                : 1.47 GiB
    Duration                                 : 1h 55mn
    Overall bit rate                         : 1 818 Kbps
    Writing application                      : VirtualDubMod | || (build 2550/release)
    Writing library                          : VirtualDubMod build 2550/release
    ID                                       : 0
    Format                                   : MPEG-4 Visual
    Format profile                           : Advanced Simple@L5
    Format settings, BVOP                    : 1
    Format settings, QPel                    : No
    Format settings, GMC                     : No warppoints
    Format settings, Matrix                  : Custom
    Codec ID                                 : XVID
    Codec ID/Hint                            : XviD
    Duration                                 : 1h 55mn
    Bit rate                                 : 1 425 Kbps
    Width                                    : 720 pixels
    Height                                   : 304 pixels
    Display aspect ratio                     : 2.35:1
    Frame rate                               : 23.976 (23976/1000) fps
    Color space                              : YUV
    Chroma subsampling                       : 4:2:0
    Bit depth                                : 8 bits
    Scan type                                : Progressive
    Compression mode                         : Lossy
    Bits/(Pixel*Frame)                       : 0.272
    Stream size                              : 1.15 GiB (78%)
    Writing library                          : XviD 73
    ID                                       : 1
    Format                                   : AC-3
    Format/Info                              : Audio Coding 3
    Mode extension                           : CM (complete main)
    Format settings, Endianness              : Big
    Codec ID                                 : 2000
    Duration                                 : 1h 55mn
    Bit rate mode                            : Constant
    Bit rate                                 : 384 Kbps
    Channel(s)                               : 6 channels
    Channel positions                        : Front: L C R, Side: L R, LFE
    Sampling rate                            : 48.0 KHz
    Frame rate                               : 31.250 fps (1536 spf)
    Compression mode                         : Lossy
    Delay relative to video                  : 700ms
    Stream size                              : 317 MiB (21%)
    Alignment                                : Split accross interleaves
    Interleave, duration                     : 42 ms (1.00 video frame)
    Interleave, preload duration             : 500 ms
    Download .torrent

    Download free and at maximum speed!

    How to Download? · What is a torrent? · Ratings and Limitations

    The site does not extend and does not store electronic(digital) versions of products, and only gives access to a reference catalogue created by users on torrent-files which contain only lists of the hash-sums, the earnest entreaty, with complaints(abuse) to access directly to the user. Files for an exchange on tracker are given by users of a site, and the administration does not bear the responsibility for their maintenance. The request to not fill in the files protected by copyrights, and also files of the illegal maintenance!

    [Profile] [PM]
    Display posts from previous:    
    Reply to topic

    The time now is: Today 19:52

    All times are GMT + 3 Hours

    You cannot post new topics in this forum
    You cannot reply to topics in this forum
    You cannot edit your posts in this forum
    You cannot delete your posts in this forum
    You cannot vote in polls in this forum
    You cannot attach files in this forum
    You cannot download files in this forum