BitTorrentTracker PerecTracker.org
BitTorrentTracker PerecTracker.org
    
Регистрация  ·  Вход
 
 · 
Забыли пароль?

  • Всевидящее око / Eye in the Sky (Гэвин Худ / Gavin Hood) [2015, Великобритания, Триллер, драма, военный, HDRip] MVO (Coldfilm) + Sub Eng

    Ответить на тему
     
    Автор Сообщение

    Light

    Создавать темы 14-Июн-2016 12:50

           

    [Цитировать]

    Всевидящее око / Eye in the Sky
    Страна: Великобритания
    Жанр: Триллер, драма, военный
    Год выпуска: 2015
    Продолжительность: 01:43:16
    Перевод: Любительский (многоголосый закадровый) Coldfilm
    Cубтитры: английские
    Оригинальная аудиодорожка: нет
    Режиссер: Гэвин Худ / Gavin Hood
    В ролях: Хелен Миррен, Файза Хассан, Аиша Такоу, Армаан Хаггио, Боб Чаппель, Алекс Гафлавент, Аарон Пол, Бабу Сизей, Карл Бьюкс, Кейт Ликориш
    Описание: Хелен Миррен играет полковника Пауэлл, офицера армии Великобритании которая возглавляет тайную операцию с применением беспилотного аппарата, целью которой является поимка террористов в Кении. Тщательно спланированная миссия внезапно меняет приоритеты и вместо поимки...
    Сэмпл: http://sendfile.su/1242498
    Качество видео: HDRip
    Формат видео: AVI
    Видео: Хvid; 720x304 (2.35:1); 23.976 fps; 1699 kbps avg
    Аудио: АС-3 ; 2 Сh, 48.0 KHz, 192 кб/с

    Формат субтитров: hardsub (неотключаемые)
    Доп. информация о субтитрах: на Кенийскую речь.

    MediaInfo

    Format : AVI
    Format/Info : Audio Video Interleave
    File size : 1.36 GiB
    Duration : 1h 42mn
    Overall bit rate : 1 900 Kbps
    Writing application : VirtualDubMod 1.5.10.3 | www.virtualdub-fr.org || (build 2550/release)
    Writing library : VirtualDubMod build 2550/release
    Video
    ID : 0
    Format : MPEG-4 Visual
    Format profile : Advanced Simple@L5
    Format settings, BVOP : 1
    Format settings, QPel : No
    Format settings, GMC : No warppoints
    Format settings, Matrix : Default (MPEG)
    Codec ID : XVID
    Codec ID/Hint : XviD
    Duration : 1h 42mn
    Bit rate : 1 699 Kbps
    Width : 720 pixels
    Height : 304 pixels
    Display aspect ratio : 2.35:1
    Frame rate : 23.976 (23976/1000) fps
    Color space : YUV
    Chroma subsampling : 4:2:0
    Bit depth : 8 bits
    Scan type : Progressive
    Compression mode : Lossy
    Bits/(Pixel*Frame) : 0.324
    Stream size : 1.22 GiB (89%)
    Writing library : XviD 73
    Audio
    ID : 1
    Format : AC-3
    Format/Info : Audio Coding 3
    Mode extension : CM (complete main)
    Format settings, Endianness : Big
    Codec ID : 2000
    Duration : 1h 42mn
    Bit rate mode : Constant
    Bit rate : 192 Kbps
    Channel(s) : 2 channels
    Channel positions : Front: L R
    Sampling rate : 48.0 KHz
    Frame rate : 31.250 fps (1536 spf)
    Compression mode : Lossy
    Stream size : 141 MiB (10%)
    Alignment : Split accross interleaves
    Interleave, duration : 42 ms (1.00 video frame)
    Interleave, preload duration : 500 ms

    Скриншот c названием фильма

    Скриншоты






    Скачать .torrent

    Скачать торрент-файл бесплатно и на максимальной скорости!

    Как скачивать? · Что такое торрент? · Рейтинг и ограничения

    !ВНИМАНИЕ!
    Сайт не распространяет и не хранит электронные версии произведений, а занимается лишь лишь предоставлением доступа к создаваемому пользователями каталогу ссылок на торрент-файлы, которые содержат только списки хеш-сумм, убедительная просьба с жалобами обращаться напрямую к пользователю. Файлы для обмена на трекере предоставлены пользователями сайта, и администрация не несёт ответственности за их содержание. Просьба не заливать файлы, защищенные авторскими правами, а также файлы нелегального содержания!


    _________________
    [Профиль] [ЛС]
    Показать сообщения:    
    Ответить на тему

    Текущее время: Сегодня, в 12:36

    Часовой пояс: GMT + 2



    Вы не можете начинать темы
    Вы не можете отвечать на сообщения
    Вы не можете редактировать свои сообщения
    Вы не можете удалять свои сообщения
    Вы не можете голосовать в опросах
    Вы не можете прикреплять файлы к сообщениям
    Вы не можете скачивать файлы