Register  ·  Log in
Forgot password?

  • Всевидящее око / Eye in the Sky (Гэвин Худ / Gavin Hood) [2015, Великобритания, Триллер, драма, военный, HDRip] MVO (Coldfilm) + Sub Eng

    Reply to topic
    Author Message


    Post 14-Jun-2016 13:50



    Всевидящее око / Eye in the Sky
    Страна: Великобритания
    Жанр: Триллер, драма, военный
    Год выпуска: 2015
    Продолжительность: 01:43:16
    Перевод: Любительский (многоголосый закадровый) Coldfilm
    Cубтитры: английские
    Оригинальная аудиодорожка: нет
    Режиссер: Гэвин Худ / Gavin Hood
    В ролях: Хелен Миррен, Файза Хассан, Аиша Такоу, Армаан Хаггио, Боб Чаппель, Алекс Гафлавент, Аарон Пол, Бабу Сизей, Карл Бьюкс, Кейт Ликориш
    Описание: Хелен Миррен играет полковника Пауэлл, офицера армии Великобритании которая возглавляет тайную операцию с применением беспилотного аппарата, целью которой является поимка террористов в Кении. Тщательно спланированная миссия внезапно меняет приоритеты и вместо поимки...
    Качество видео: HDRip
    Формат видео: AVI
    Видео: Хvid; 720x304 (2.35:1); 23.976 fps; 1699 kbps avg
    Аудио: АС-3 ; 2 Сh, 48.0 KHz, 192 кб/с

    Формат субтитров: hardsub (неотключаемые)
    Доп. информация о субтитрах: на Кенийскую речь.


    Format : AVI
    Format/Info : Audio Video Interleave
    File size : 1.36 GiB
    Duration : 1h 42mn
    Overall bit rate : 1 900 Kbps
    Writing application : VirtualDubMod | || (build 2550/release)
    Writing library : VirtualDubMod build 2550/release
    ID : 0
    Format : MPEG-4 Visual
    Format profile : Advanced Simple@L5
    Format settings, BVOP : 1
    Format settings, QPel : No
    Format settings, GMC : No warppoints
    Format settings, Matrix : Default (MPEG)
    Codec ID : XVID
    Codec ID/Hint : XviD
    Duration : 1h 42mn
    Bit rate : 1 699 Kbps
    Width : 720 pixels
    Height : 304 pixels
    Display aspect ratio : 2.35:1
    Frame rate : 23.976 (23976/1000) fps
    Color space : YUV
    Chroma subsampling : 4:2:0
    Bit depth : 8 bits
    Scan type : Progressive
    Compression mode : Lossy
    Bits/(Pixel*Frame) : 0.324
    Stream size : 1.22 GiB (89%)
    Writing library : XviD 73
    ID : 1
    Format : AC-3
    Format/Info : Audio Coding 3
    Mode extension : CM (complete main)
    Format settings, Endianness : Big
    Codec ID : 2000
    Duration : 1h 42mn
    Bit rate mode : Constant
    Bit rate : 192 Kbps
    Channel(s) : 2 channels
    Channel positions : Front: L R
    Sampling rate : 48.0 KHz
    Frame rate : 31.250 fps (1536 spf)
    Compression mode : Lossy
    Stream size : 141 MiB (10%)
    Alignment : Split accross interleaves
    Interleave, duration : 42 ms (1.00 video frame)
    Interleave, preload duration : 500 ms

    Скриншот c названием фильма


    Download .torrent

    Download free and at maximum speed!

    How to Download? · What is a torrent? · Ratings and Limitations

    The site does not extend and does not store electronic(digital) versions of products, and only gives access to a reference catalogue created by users on torrent-files which contain only lists of the hash-sums, the earnest entreaty, with complaints(abuse) to access directly to the user. Files for an exchange on tracker are given by users of a site, and the administration does not bear the responsibility for their maintenance. The request to not fill in the files protected by copyrights, and also files of the illegal maintenance!

    [Profile] [PM]
    Display posts from previous:    
    Reply to topic

    The time now is: Today 13:59

    All times are GMT + 3 Hours

    You cannot post new topics in this forum
    You cannot reply to topics in this forum
    You cannot edit your posts in this forum
    You cannot delete your posts in this forum
    You cannot vote in polls in this forum
    You cannot attach files in this forum
    You cannot download files in this forum