BitTorrentTracker PerecTracker.org
BitTorrentTracker PerecTracker.org
    
Регистрация  ·  Вход
 
 · 
Забыли пароль?

  • Вудлон / Woodlawn (Эндрю Эрвин / Andrew Erwin) [2015, США, Драма, спорт, HDRip] MVO (iTunes)

    Ответить на тему
     
    Автор Сообщение

    Light

    Создавать темы 14-Июн-2016 12:50

           

    [Цитировать]

    Вудлон / Woodlawn«One Hope. One Truth. One Way»-Год выпуска: 2015
    Страна: США
    Жанр: Драма, спорт
    Продолжительность: 02:03:57
    Перевод: Профессиональный (многоголосый закадровый) iTunes
    Субтитры: нет-Рейтинг MPAA: PG (рекомендуется присутствие родителей)- -Режиссер: Эндрю Эрвин / Andrew Erwin,
    В ролях: Шон Эстин, Ник Бишоп, Калеб Кастилло, Шерри Шеперд, Джон Войт, Джой Брансон, Лэнс Э. Николс, Си Томас Хауэлл, Кевин Сайзмор, Девон Франклин...
    Описание: Фильм основан на реальных событиях, произошедших в 1973 году в Алабаме. Это было непростое время, когда расовый вопрос стоял очень остро. Чернокожий парень решает играть в американский футбол. Но в команде среди белых парней он чувствует себя изгоем. Но чтобы добиться поставленной цели и идти к своей мечте, он и его команда находят спасение в вере...-Сэмпл-Качество: НDRip
    Формат видео: AVI
    Видео: 720x304 (2.35:1), 23.976 fps, XviD, 1485 kbps, 0.28 bit/pixel
    Аудио: 48 kHz, AC-3, 2 ch, 192 kbps, Rus, MVO
    Субтитры: Отсутствуют-

    MediaInfo

    Формат : AVIФормат/Информация : Audio Video InterleaveРазмер файла : 1,46 ГбайтПродолжительность : 2 ч. 3 м.Общий поток : 1686 Кбит/секЖанр : Drama/Sport / Drama/SportПрограмма кодирования : VirtualDubMod 1.5.10.3 (build 2550/release)Формат оригинала/Имя : Movie / Movie
    ВидеоИдентификатор : 0Формат : MPEG-4 VisualПрофиль формата : Advanced Simple@L5Параметр BVOP формата : 2Параметр QPel формата : НетПараметр GMC формата : Без точки переходаПараметр матрицы формата : ВыборочнаяИдентификатор кодека : XVIDИдентификатор кодека/Подсказка : XviDПродолжительность : 2 ч. 3 м.Битрейт : 1485 Кбит/секШирина : 720 пикселейВысота : 304 пикселяСоотношение сторон : 2,35:1Частота кадров : 23,976 кадра/секЦветовое пространство : YUVСубдискретизация насыщенности : 4:2:0Битовая глубина : 8 битТип развёртки : ПрогрессивнаяМетод сжатия : С потерямиБит/(Пиксели*Кадры) : 0.283Размер потока : 1,29 Гбайт (88%)Библиотека кодирования : XviD 73
    АудиоИдентификатор : 1Формат : AC-3Формат/Информация : Audio Coding 3Расширение режима : CM (complete main)Параметр Endianness формата : BigИдентификатор кодека : 2000Продолжительность : 2 ч. 3 м.Вид битрейта : ПостоянныйБитрейт : 192 Кбит/секКаналы : 2 каналаРасположение каналов : Front: L RЧастота : 48,0 КГцМетод сжатия : С потерямиРазмер потока : 170 Мбайт (11%)Выравнивание : Соединение по промежуткамПродолжительность промежутка : 42 мс. (1,00 видеокадр)Время предзагрузки промежутка : 512 мс.

    Скриншоты

    Скачать .torrent

    Скачать торрент-файл бесплатно и на максимальной скорости!

    Как скачивать? · Что такое торрент? · Рейтинг и ограничения

    !ВНИМАНИЕ!
    Сайт не распространяет и не хранит электронные версии произведений, а занимается лишь лишь предоставлением доступа к создаваемому пользователями каталогу ссылок на торрент-файлы, которые содержат только списки хеш-сумм, убедительная просьба с жалобами обращаться напрямую к пользователю. Файлы для обмена на трекере предоставлены пользователями сайта, и администрация не несёт ответственности за их содержание. Просьба не заливать файлы, защищенные авторскими правами, а также файлы нелегального содержания!


    _________________
    [Профиль] [ЛС]
    Показать сообщения:    
    Ответить на тему

    Текущее время: Сегодня, в 07:58

    Часовой пояс: GMT + 2



    Вы не можете начинать темы
    Вы не можете отвечать на сообщения
    Вы не можете редактировать свои сообщения
    Вы не можете удалять свои сообщения
    Вы не можете голосовать в опросах
    Вы не можете прикреплять файлы к сообщениям
    Вы не можете скачивать файлы