BitTorrentTracker PerecTracker.org
BitTorrentTracker PerecTracker.org
    
Регистрация  ·  Вход
 
 · 
Забыли пароль?

  • Ветка сирени (Павел Лунгин) [2007, драма, музыка, DVDRip]

    Ответить на тему
     
    Автор Сообщение

    Flirldrerve

    Создавать темы 14-Июн-2016 00:33

           

    [Цитировать]

    Ветка сирениЖанр: драма, музыка
    Год выпуска: 2007
    Продолжительность: 01:37:08
    Режиссёр: Павел Лунгин
    В ролях: Евгений Цыганов, Виктория Толстоганова, Алексей Кортнев, Игорь Черневич, Олег Андреев, Мириам Сехон, Виктория Исакова, Евдокия Германова, Алексей Петренко, Лия Ахеджакова, Леонид Мозговой, Светлана Обидина, Андрей Эвальдт, Евгений Меркурьев, Ольга Онищенко, Николай Исполатов, Лев Елисеев, Мария Дунаева, Александр Завьялов, Сергей Амосов, Алексей Осипов, Иван Тарханов, Валерий Кухарешин, Роман Агеев, Андрей Шарков, Андрей Федорцов
    Описание: Фильм-фантазия о выдающемся русском композиторе Сергее Рахманинове. По легенде, после каждого выступления Рахманинов получал от прекрасной незнакомки букет белой сирени. Вплоть до эмиграции в Америку в 1917 году. Но проходит какое-то время, и в его эмигрантской жизни снова появляется сирень от незнакомки...
    Доп. информация:

    Рип: waarheid
    Сэмпл:

    Качество видео: DVDRip [Исходник: DVD5]
    Формат видео: AVI
    Видео: 704x304 (2.32:1), 25 fps, XviD build 73 ~1700 kbps avg, 0.32 bit/pixel
    Аудио: 48 kHz, AC3 Dolby Digital, 3/2 (L,C,R,l,r) + LFE ch, ~448 kbps

    MediaInfo

    Общее
    Полное имя : Ветка сирени.2007_DVDRip_by_waarheid.avi
    Формат : AVI
    Формат/Информация : Audio Video Interleave
    Размер файла : 1,46 Гбайт
    Продолжительность : 1 ч. 37 м.
    Общий поток : 2158 Кбит/сек
    Программа кодирования : VirtualDubMod 1.5.10.3 | www.virtualdub-fr.org || (build 2550/release)
    Видео
    Идентификатор : 0
    Формат : MPEG-4 Visual
    Профиль формата : Advanced Simple@L5
    Параметр BVOP формата : 1
    Параметр QPel формата : Нет
    Параметр GMC формата : Без точки перехода
    Параметр матрицы формата : Выборочная
    Идентификатор кодека : XVID
    Идентификатор кодека/Подсказка : XviD
    Продолжительность : 1 ч. 37 м.
    Битрейт : 1700 Кбит/сек
    Ширина : 704 пикселя
    Высота : 304 пикселя
    Соотношение сторон : 2,35:1
    Частота кадров : 25,000 кадров/сек
    Цветовое пространство : YUV
    Субдискретизация насыщенности : 4:2:0
    Битовая глубина : 8 бит
    Тип развёртки : Прогрессивная
    Метод сжатия : С потерями
    Бит/(Пиксели*Кадры) : 0.318
    Размер потока : 1,15 Гбайт (79%)
    Библиотека кодирования : XviD 73
    Аудио
    Идентификатор : 1
    Формат : AC-3
    Формат/Информация : Audio Coding 3
    Расширение режима : CM (complete main)
    Параметр Endianness формата : Big
    Идентификатор кодека : 2000
    Продолжительность : 1 ч. 37 м.
    Вид битрейта : Постоянный
    Битрейт : 448 Кбит/сек
    Каналы : 6 каналов
    Расположение каналов : Front: L C R, Side: L R, LFE
    Частота : 48,0 КГц
    Частота кадров : 31,250 кадров/сек (1536 spf)
    Метод сжатия : С потерями
    Размер потока : 311 Мбайт (21%)
    Выравнивание : Разделение по промежуткам
    Продолжительность промежутка : 40 мс. (1,00 видеокадр)
    Время предзагрузки промежутка : 500 мс.

    Скриншот c названием фильма

    Скриншоты

    Скачать .torrent

    Скачать торрент-файл бесплатно и на максимальной скорости!

    Как скачивать? · Что такое торрент? · Рейтинг и ограничения

    !ВНИМАНИЕ!
    Сайт не распространяет и не хранит электронные версии произведений, а занимается лишь лишь предоставлением доступа к создаваемому пользователями каталогу ссылок на торрент-файлы, которые содержат только списки хеш-сумм, убедительная просьба с жалобами обращаться напрямую к пользователю. Файлы для обмена на трекере предоставлены пользователями сайта, и администрация не несёт ответственности за их содержание. Просьба не заливать файлы, защищенные авторскими правами, а также файлы нелегального содержания!


    _________________
    [Профиль] [ЛС]
    Показать сообщения:    
    Ответить на тему

    Текущее время: Сегодня, в 22:31

    Часовой пояс: GMT + 2



    Вы не можете начинать темы
    Вы не можете отвечать на сообщения
    Вы не можете редактировать свои сообщения
    Вы не можете удалять свои сообщения
    Вы не можете голосовать в опросах
    Вы не можете прикреплять файлы к сообщениям
    Вы не можете скачивать файлы