BitTorrentTracker PerecTracker.org
BitTorrentTracker PerecTracker.org
    
Регистрация  ·  Вход
 
 · 
Забыли пароль?

  • Вышибала / Серии: 1-16 из 16 (Константин Винокуров) [2016, драма, криминал, HDTVRip]

    Ответить на тему
     
    Автор Сообщение

    rechyn

    Создавать темы 13-Июн-2016 22:31

           

    [Цитировать]

    ВышибалаГод выпуска: 2016
    Производство: Россия, "Пирамида"
    Жанр: драма, криминал
    Продолжительность: 00:45:00
    Субтитры: нет
    Режиссёр: Константин Винокуров
    В ролях:
    Дмитрий Марьянов, Анастасия Панина, Гела Месхи, Мария Машкова, Александр Наумов, Владимир Фекленко, Надежда Маркина, Константин Юшкевич, Ян Цапник, Семён Трескунов, Анна Казючиц, Олег Васильков, Леонид Тимцуник, Фёдор Лавров, Лилия Лаврова, Аксиния Пустыльникова, Екатерина Давыдова-Тонгур, Роман Синицын
    Описание: Криминальная драма о человеке, который после длительного тюремного заключения возвращается в родной город. Он хочет разобраться со своим прошлым и вернуть себе любимую, которая теперь с его врагом.Пятнадцать лет назад юный самбист Александр Чижов по прозвищу Чижик попадает в преступную группировку. Лидер банды Гуня – Николай Регунов сразу обращает на спортсмена внимание и поддерживает его в трудные моменты жизни. Чижик искренне предан Гуне и компании. Он оставляет спорт, у него появляются деньги, статус и любимая девушка Наташа.Но все меняется, когда одна из бандитских сходок заканчивается стрельбой. Защищаясь, Гуня убивает трех человек. Попав в оцепление полиции, Чижик просит Гуню отдать ему пистолет и берет на себя чужое преступление. Он получает пятнадцать лет тюрьмы, а его семья теперь находится на финансовом обеспечении у банды. Провожая любимого за решетку, Наташа обещает ждать его. Но на свидании в тюрьме Чижик отталкивает девушку, в надежде на то, что она начнет устраивать свою жизнь. Наташа выходит замуж… Спустя годы Чижик возвращается на волю. Теперь Гуня – влиятельный бизнесмен и хозяин города, а та самая Наташа – его жена и компаньон.Они воспитывают сына, отцом которого является Чижик. В честь возвращения друга Регунов устраивает шикарный прием. На вечеринке Чижик и Наташа встречаются и понимают, что прошлое никуда не делось. «Чижик-Пыжик, где ты был?» - вырывается у Наташи их старая присказка, и чувства возникают с новой силой.Чижик устраивается в коллекторское бюро «пугалом для должников».Благодаря смекалке и образу брутального «вышибалы» герой приобретает репутацию умелого переговорщика. Но внезапно его втягивают в войну между Гуней и начальником местного УВД Головачом.
    Релиз группа
    Все раздачи сериала
    Сэмпл
    Качество: HDTVRip
    Формат: AVI
    Видео кодек: XviD
    Аудио кодек: AC3
    Видео: 720x400 (1.80:1), 25 fps, XviD build 73 ~1498 kbps avg, 0.22 bit/pixel
    Аудио: 48 kHz, AC3 Dolby Digital, 2/0 (L,R) ch, ~192.00 kbps avg

    MI

    Общее
    Полное имя : F:\Video\Vychibala.2016.HDTVRip.Files-x.Vychibala.2016.HDTVRip.Files-x.avi
    Формат : AVI
    Формат/Информация : Audio Video Interleave
    Размер файла : 550 Мбайт
    Продолжительность : 45 м.
    Общий поток : 1699 Кбит/сек
    Программа кодирования : VirtualDubModRus 1.5.10.2 (build 2542/release)
    Библиотека кодирования : VirtualDubMod build 2542/release
    Видео
    Идентификатор : 0
    Формат : MPEG-4 Visual
    Профиль формата : Advanced Simple@L5
    Параметр BVOP формата : 1
    Параметр QPel формата : Нет
    Параметр GMC формата : Без точки перехода
    Параметр матрицы формата : Выборочная
    Идентификатор кодека : XVID
    Идентификатор кодека/Подсказка : XviD
    Продолжительность : 45 м.
    Битрейт : 1498 Кбит/сек
    Ширина : 720 пикселей
    Высота : 400 пикселей
    Соотношение сторон : 16:9
    Частота кадров : 25,000 кадров/сек
    Цветовое пространство : YUV
    Субдискретизация насыщенности : 4:2:0
    Битовая глубина : 8 бит
    Тип развёртки : Прогрессивная
    Метод сжатия : С потерями
    Бит/(Пиксели*Кадры) : 0.208
    Размер потока : 485 Мбайт (88%)
    Библиотека кодирования : XviD 73
    Аудио
    Идентификатор : 1
    Формат : AC-3
    Формат/Информация : Audio Coding 3
    Расширение режима : CM (complete main)
    Параметр Endianness формата : Big
    Идентификатор кодека : 2000
    Продолжительность : 45 м.
    Вид битрейта : Постоянный
    Битрейт : 192 Кбит/сек
    Каналы : 2 канала
    Расположение каналов : Front: L R
    Частота : 48,0 КГц
    Битовая глубина : 16 бит
    Метод сжатия : С потерями
    Размер потока : 62,2 Мбайт (11%)
    Выравнивание : Разделение по промежуткам
    Продолжительность промежутка : 40 мс. (1,00 видеокадр)
    Время предзагрузки промежутка : 500 мс.

    Скриншоты

    Скачать .torrent

    Скачать торрент-файл бесплатно и на максимальной скорости!

    Как скачивать? · Что такое торрент? · Рейтинг и ограничения

    !ВНИМАНИЕ!
    Сайт не распространяет и не хранит электронные версии произведений, а занимается лишь лишь предоставлением доступа к создаваемому пользователями каталогу ссылок на торрент-файлы, которые содержат только списки хеш-сумм, убедительная просьба с жалобами обращаться напрямую к пользователю. Файлы для обмена на трекере предоставлены пользователями сайта, и администрация не несёт ответственности за их содержание. Просьба не заливать файлы, защищенные авторскими правами, а также файлы нелегального содержания!


    _________________
    [Профиль] [ЛС]
    Показать сообщения:    
    Ответить на тему

    Текущее время: Сегодня, в 18:25

    Часовой пояс: GMT + 2



    Вы не можете начинать темы
    Вы не можете отвечать на сообщения
    Вы не можете редактировать свои сообщения
    Вы не можете удалять свои сообщения
    Вы не можете голосовать в опросах
    Вы не можете прикреплять файлы к сообщениям
    Вы не можете скачивать файлы