BitTorrentTracker PerecTracker.org
BitTorrentTracker PerecTracker.org
    
Регистрация  ·  Вход
 
 · 
Забыли пароль?

  • Кунг-фу Панда 3 / Kung Fu Panda 3 (Алессандро Карлони, Дженнифер Ю / Alessandro Carloni, Jennifer Yuh) [2016, Китай, США, Мультфильм, комедия, семейный, BDRip-AVC] Dub (iTunes)+ Original Eng + Sub Rus, Eng

    Ответить на тему
     
    Автор Сообщение

    Flirldrerve

    Создавать темы 13-Июн-2016 20:28

           

    [Цитировать]

    Кунг-фу Панда 3 / Kung Fu Panda 3
    Страна: Китай, США
    Жанр: Мультфильм, боевик, комедия, приключения, семейный
    Продолжительность: 01:34:54
    Год выпуска: 2016
    Перевод: Профессиональный (дублированный) iTunes
    Русские субтитры: есть--Режиссёр: Алессандро Карлони, Дженнифер Ю / Alessandro Carloni, Jennifer Yuh--Роли озвучивали: Джек Блэк, Брайан Крэнстон, Дастин Хоффман, Анджелина Джоли, Дж.К. Симмонс, Джеки Чан, Сет Роген, Люси Лью, Дэвид Кросс, Кейт Хадсон, Джеймс Хонг, Рэндолл Дак Ким, Стил Гэнон...--Роли дублировали: Михаил Галустян, Александр Новиков, Василиса Эльдарова, Александр Хотченков, Ольга Зубкова, Сергей Чихачев, Диомид Виноградов, Денис Беспалый, Марианна Шульц, Александр Гаврилин, Анастасия Лапина, Олег Форостенко, Борис Быстров, Матвей Некрасов...--Описание: Воссоединившись со своим давно потерянным отцом, По отправляется в тайный рай для панд, где его ожидает встреча с множеством веселых сородичей. Однако вскоре злодей Кай начинает зачистку - он уничтожает кунг-фу мастеров по всему Китаю. По предстоит сделать невозможное - обучить боевому искусству деревню, полную его веселых, неуклюжих собратьев, и тем самым превратить их в отряд кунг-фу панд.--Доп. информация: | IMDB | КиноПоиск | Сэмпл |--Качество: BDRip-AVC Kung Fu Panda 3 (2016) 1080p BD-Remux Hdclub
    Формат: MKV
    Видео: AVC, 1120x476, (2.35:1), 3341 kbps, 23.976 fps, 0.261 bit/pixel
    Аудио 1: AC3 Dolby Digital, 3/2 (L,C,R,l,r) + LFE ch, 48 kHz, 384 kbps | Дубляж |
    Аудио 2: AC3 Dolby Digital, 2/0 (L,R) ch, 48 kHz, 192 kbps | Дубляж Украинский |
    Аудио 3: AC3 Dolby Digital, 3/2 (L,C,R,l,r) + LFE ch, 48 kHz, 448 kbps | Original |
    Аудио 4: AC3 Dolby Digital, 3/2 (L,C,R,l,r) + LFE ch, 48 kHz, 448 kbps | Descriptivel |
    Субтитры: Русские (Форсированные, Полные), Украинские (Полные), Английские (Full, Full SDH)
    Скриншоты

    Запасные скриншоты

    Подробные технические данные

    x264

    raw [info]: 1120x476p 1:1 @ 24000/1001 fps (cfr)
    x264 [info]: using SAR=1/1
    x264 [info]: using cpu capabilities: MMX2 SSE2Fast SSSE3 SSE4.2 AVX
    x264 [info]: profile High, level 4.1
    x264 [info]: frame I:1169 Avg QP:15.68 size:106979
    x264 [info]: frame P:33761 Avg QP:17.49 size: 34374
    x264 [info]: frame B:101605 Avg QP:20.51 size: 10757
    x264 [info]: consecutive B-frames: 3.5% 3.6% 11.6% 38.4% 17.5% 13.7% 1.7% 1.3% 1.3% 0.3% 0.1% 0.1% 0.1% 1.6% 5.3% 0.1%
    x264 [info]: mb I I16..4: 4.5% 66.9% 28.6%
    x264 [info]: mb P I16..4: 1.5% 15.8% 3.3% P16..4: 32.4% 19.3% 16.6% 1.7% 0.7% skip: 8.7%
    x264 [info]: mb B I16..4: 0.2% 1.4% 0.5% B16..8: 32.2% 11.6% 4.9% direct: 6.1% skip:43.2% L0:38.9% L1:42.1% BI:19.1%
    x264 [info]: 8x8 transform intra:74.3% inter:53.9%
    x264 [info]: coded y,uvDC,uvAC intra: 85.8% 89.9% 76.7% inter: 22.3% 23.1% 11.1%
    x264 [info]: i16 v,h,dc,p: 14% 20% 8% 58%
    x264 [info]: i8 v,h,dc,ddl,ddr,vr,hd,vl,hu: 10% 13% 7% 8% 12% 11% 13% 11% 15%
    x264 [info]: i4 v,h,dc,ddl,ddr,vr,hd,vl,hu: 9% 9% 5% 9% 16% 13% 15% 11% 14%
    x264 [info]: i8c dc,h,v,p: 41% 25% 15% 20%
    x264 [info]: Weighted P-Frames: Y:4.7% UV:4.0%
    x264 [info]: ref P L0: 54.3% 12.0% 12.2% 5.5% 3.5% 3.0% 2.2% 1.5% 1.2% 1.1% 0.9% 0.9% 0.8% 0.8% 0.1% 0.0%
    x264 [info]: ref B L0: 78.2% 10.1% 4.8% 1.9% 1.3% 0.9% 0.8% 0.5% 0.4% 0.3% 0.3% 0.2% 0.1%
    x264 [info]: ref B L1: 94.2% 5.8%
    x264 [info]: kb/s:3341.34
    General
    Unique ID : 213243885842994912089919285976515811786 (0xA06D474D1A6C700ABAC943B35AFD19CA)
    Complete name : Kung Fu Panda 3 (2016).mkv
    Format : Matroska
    Format version : Version 4 / Version 2
    File size : 3.19 GiB
    Duration : 1h 34mn
    Overall bit rate : 4 817 Kbps
    Movie name : Кунг-фу Панда 3 / Kung Fu Panda 3 (2016)
    Encoded date : UTC 2016-06-13 13:40:33
    Writing application : mkvmerge v8.1.0 ('Psychedelic Postcard') 64bit
    Writing library : libebml v1.3.1 + libmatroska v1.4.2
    Cover : Yes
    Attachments : cover.png
    Video
    ID : 1
    Format : AVC
    Format/Info : Advanced Video Codec
    Format profile : High@L4.1
    Format settings, CABAC : Yes
    Format settings, ReFrames : 14 frames
    Codec ID : V_MPEG4/ISO/AVC
    Duration : 1h 34mn
    Bit rate : 3 341 Kbps
    Width : 1 120 pixels
    Height : 476 pixels
    Display aspect ratio : 2.35:1
    Frame rate mode : Constant
    Frame rate : 23.976 (24000/1001) fps
    Color space : YUV
    Chroma subsampling : 4:2:0
    Bit depth : 8 bits
    Scan type : Progressive
    Bits/(Pixel*Frame) : 0.261
    Stream size : 2.22 GiB (69%)
    Title : Kung Fu Panda 3. By optik.1557
    Writing library : x264 core 148 r2692kMod 64f4e24
    Encoding settings : cabac=1 / ref=14 / deblock=1:-3:-2 / analyse=0x3:0x133 / me=umh / subme=10 / psy=1 / fade_compensate=0.00 / psy_rd=1.05:0.03 / mixed_ref=1 / me_range=48 / chroma_me=1 / trellis=2 / 8x8dct=1 / cqm=0 / deadzone=21,11 / fast_pskip=0 / chroma_qp_offset=-3 / threads=6 / lookahead_threads=1 / sliced_threads=0 / nr=0 / decimate=1 / interlaced=0 / bluray_compat=0 / constrained_intra=0 / fgo=0 / bframes=15 / b_pyramid=2 / b_adapt=2 / b_bias=0 / direct=1 / weightb=1 / open_gop=0 / weightp=2 / keyint=250 / keyint_min=23 / scenecut=40 / intra_refresh=0 / rc_lookahead=60 / rc=crf / mbtree=0 / crf=16.5000 / qcomp=0.60 / qpmin=0 / qpmax=69 / qpstep=4 / vbv_maxrate=50000 / vbv_bufsize=62500 / crf_max=0.0 / nal_hrd=none / filler=0 / ip_ratio=1.40 / pb_ratio=1.30 / aq=2:0.90
    Language : English
    Default : Yes
    Forced : No
    Audio #1
    ID : 2
    Format : AC-3
    Format/Info : Audio Coding 3
    Mode extension : CM (complete main)
    Format settings, Endianness : Big
    Codec ID : A_AC3
    Duration : 1h 34mn
    Bit rate mode : Constant
    Bit rate : 384 Kbps
    Channel(s) : 6 channels
    Channel positions : Front: L C R, Side: L R, LFE
    Sampling rate : 48.0 KHz
    Frame rate : 31.250 fps (1536 spf)
    Compression mode : Lossy
    Stream size : 261 MiB (8%)
    Title : Дубляж (iTunes)
    Language : Russian
    Default : Yes
    Forced : No
    Audio #2
    ID : 3
    Format : AC-3
    Format/Info : Audio Coding 3
    Mode extension : CM (complete main)
    Format settings, Endianness : Big
    Codec ID : A_AC3
    Duration : 1h 34mn
    Bit rate mode : Constant
    Bit rate : 192 Kbps
    Channel(s) : 2 channels
    Channel positions : Front: L R
    Sampling rate : 48.0 KHz
    Frame rate : 31.250 fps (1536 spf)
    Compression mode : Lossy
    Stream size : 130 MiB (4%)
    Title : Дубляж (iTunes)
    Language : Ukrainian
    Default : No
    Forced : No
    Audio #3
    ID : 4
    Format : AC-3
    Format/Info : Audio Coding 3
    Mode extension : CM (complete main)
    Format settings, Endianness : Big
    Codec ID : A_AC3
    Duration : 1h 34mn
    Bit rate mode : Constant
    Bit rate : 448 Kbps
    Channel(s) : 6 channels
    Channel positions : Front: L C R, Side: L R, LFE
    Sampling rate : 48.0 KHz
    Frame rate : 31.250 fps (1536 spf)
    Compression mode : Lossy
    Stream size : 304 MiB (9%)
    Title : Original
    Language : English
    Default : No
    Forced : No
    Audio #4
    ID : 5
    Format : AC-3
    Format/Info : Audio Coding 3
    Mode extension : CM (complete main)
    Format settings, Endianness : Big
    Codec ID : A_AC3
    Duration : 1h 34mn
    Bit rate mode : Constant
    Bit rate : 448 Kbps
    Channel(s) : 6 channels
    Channel positions : Front: L C R, Side: L R, LFE
    Sampling rate : 48.0 KHz
    Frame rate : 31.250 fps (1536 spf)
    Compression mode : Lossy
    Stream size : 304 MiB (9%)
    Title : Descriptive
    Language : English
    Default : No
    Forced : No
    Text #1
    ID : 6
    Format : UTF-8
    Codec ID : S_TEXT/UTF8
    Codec ID/Info : UTF-8 Plain Text
    Duration : 1h 30mn
    Bit rate : 0 bps
    Count of elements : 3
    Stream size : 89.0 Bytes (0%)
    Title : Форсированные
    Language : Russian
    Default : Yes
    Forced : No
    Text #2
    ID : 7
    Format : UTF-8
    Codec ID : S_TEXT/UTF8
    Codec ID/Info : UTF-8 Plain Text
    Duration : 1h 34mn
    Bit rate : 76 bps
    Count of elements : 1260
    Stream size : 53.0 KiB (0%)
    Language : Russian
    Default : No
    Forced : No
    Text #3
    ID : 8
    Format : UTF-8
    Codec ID : S_TEXT/UTF8
    Codec ID/Info : UTF-8 Plain Text
    Duration : 1h 34mn
    Bit rate : 80 bps
    Count of elements : 1266
    Stream size : 55.5 KiB (0%)
    Language : Ukrainian
    Default : No
    Forced : No
    Text #4
    ID : 9
    Format : UTF-8
    Codec ID : S_TEXT/UTF8
    Codec ID/Info : UTF-8 Plain Text
    Duration : 1h 29mn
    Bit rate : 56 bps
    Count of elements : 1470
    Stream size : 36.8 KiB (0%)
    Language : English
    Default : No
    Forced : No
    Text #5
    ID : 10
    Format : UTF-8
    Codec ID : S_TEXT/UTF8
    Codec ID/Info : UTF-8 Plain Text
    Duration : 1h 29mn
    Bit rate : 64 bps
    Count of elements : 1776
    Stream size : 42.4 KiB (0%)
    Title : SDH
    Language : English
    Default : No
    Forced : No
    Menu
    00:00:00.000 : en:Chapter 1
    00:05:21.780 : en:Chapter 2
    00:08:10.240 : en:Chapter 3
    00:10:00.016 : en:Chapter 4
    00:12:26.037 : en:Chapter 5
    00:15:24.215 : en:Chapter 6
    00:19:08.230 : en:Chapter 7
    00:24:39.395 : en:Chapter 8
    00:30:17.607 : en:Chapter 9
    00:33:53.990 : en:Chapter 10
    00:36:18.259 : en:Chapter 11
    00:39:55.643 : en:Chapter 12
    00:43:32.652 : en:Chapter 13
    00:46:45.845 : en:Chapter 14
    00:51:41.181 : en:Chapter 15
    00:56:04.611 : en:Chapter 16
    00:59:48.168 : en:Chapter 17
    01:02:11.353 : en:Chapter 18
    01:05:26.965 : en:Chapter 19
    01:10:16.838 : en:Chapter 20
    01:14:06.901 : en:Chapter 21
    01:17:06.580 : en:Chapter 22
    01:20:34.788 : en:Chapter 23
    01:24:21.181 : en:Chapter 24
    Скачать .torrent

    Скачать торрент-файл бесплатно и на максимальной скорости!

    Как скачивать? · Что такое торрент? · Рейтинг и ограничения

    !ВНИМАНИЕ!
    Сайт не распространяет и не хранит электронные версии произведений, а занимается лишь лишь предоставлением доступа к создаваемому пользователями каталогу ссылок на торрент-файлы, которые содержат только списки хеш-сумм, убедительная просьба с жалобами обращаться напрямую к пользователю. Файлы для обмена на трекере предоставлены пользователями сайта, и администрация не несёт ответственности за их содержание. Просьба не заливать файлы, защищенные авторскими правами, а также файлы нелегального содержания!


    _________________
    [Профиль] [ЛС]
    Показать сообщения:    
    Ответить на тему

    Текущее время: Сегодня, в 23:16

    Часовой пояс: GMT + 2



    Вы не можете начинать темы
    Вы не можете отвечать на сообщения
    Вы не можете редактировать свои сообщения
    Вы не можете удалять свои сообщения
    Вы не можете голосовать в опросах
    Вы не можете прикреплять файлы к сообщениям
    Вы не можете скачивать файлы