BitTorrentTracker PerecTracker.org
BitTorrentTracker PerecTracker.org
    
Регистрация  ·  Вход
 
 · 
Забыли пароль?

  • Дарующий бессмертие / The Immortalizer (Джоэль Бендер / Joel Bender) [1990, США, ужасы, фантастика, HDTV 720p] 2x AVO (Сербин, Гаврилов) + Original Eng

    Ответить на тему
     
    Автор Сообщение

    Light

    Создавать темы 13-Июн-2016 16:24

           

    [Цитировать]

    Дарующий Бессмертие / The Immortalizer
    Год выпуска: 1990
    Страна: США
    Жанр: ужасы, фантастика
    Продолжительность: 01:32:17
    Перевод1: Авторский (одноголосый закадровый)(Ю.Сербин)
    Перевод2: Авторский (одноголосый закадровый)(А.Гаврилов)
    Субтитры: отсутствуют
    Оригинальная аудиодорожка: английский
    Режиссер: Джоэл Бендер / Joel Bender
    В ролях: Крис Кроун, Мэлоди Паттерсон, Ребекка Армстронг, Рон Рэй
    Описание: Жизнь вечная всегда беспокоила ума людей, особенно тех, у кого финансовые возможности практически безграничны. Они готовы заплатить любую сумму денег и пройти любую процедуру для этого. Повсеместно появлялись шарлатаны, которые обещали вечную жизнь, но не один из них так и не мог её обеспечить, пока тайная группа врачей наконец не изобрела способ.
    Эта организация научилась пересаживать разум в разные тела людей. Так, они похищали молодое тело и помещали туда богатого старика или состоятельную старуху. Как-то компания обнаглела настолько, что среди бела дня похитила целую группу друзей. Один из похищенных, придя в себя, проявил смекалку и сбежал из лап "черных" пересаживальщиков. Теперь он продумывает план действий, как освободить своих приятелей, пока в их телах не завелись другие люди...

    Качество: HDTV 720p
    Формат: MKV
    Видео кодек: H.264
    Аудио кодек: AC3, ААС
    Видео: 1280 x 720 / MPEG-4 AVC Video / 3530 kbps / 25.000 fps / High@L3.1
    Аудио1: Русский, AC3 2.0 192 Kbps 48,0 КГц(Serbin)
    Аудио2: Русский, AC3 1.0 128 Kbps 48,0 КГц(Gavrilov)
    Аудио3: English, AAC-LC 2.0 192 Kbps 48,0 КГц(Original)

    MediaInfo

    Общее
    Уникальный идентификатор : 211229018425930495809123826777968883012
    (0x9EE93AAAF367F505B4BCEC1C66E83544)
    Полное имя : D:\The.Immortalizer.1989.720p.2xRus.Eng.mkv
    Формат : Matroska
    Версия формата : Version 4 / Version 2
    Размер файла : 2,60 Гбайт
    Продолжительность : 1 ч. 32 м.
    Режим общего битрейта : Переменный
    Общий поток : 4040 Кбит/сек
    Название фильма : Immortalizer
    Дата кодирования : UTC 2016-06-10 16:16:30
    Программа кодирования : mkvmerge v9.2.0 ('Photograph') 32bit
    Библиотека кодирования : libebml v1.3.3 + libmatroska v1.4.4
    DURATION : 01:32:07.072000000
    NUMBER_OF_FRAMES : 172721
    NUMBER_OF_BYTES : 88433152
    _STATISTICS_WRITING_APP : mkvmerge v9.2.0 ('Photograph') 32bit
    _STATISTICS_WRITING_DATE_UTC : 2016-06-10 16:16:30
    _STATISTICS_TAGS : BPS DURATION NUMBER_OF_FRAMES NUMBER_OF_BYTES
    Видео
    Идентификатор : 1
    Формат : AVC
    Формат/Информация : Advanced Video Codec
    Профиль формата : High@L3.1
    Параметр CABAC формата : Да
    Параметр ReFrames формата : 2 кадра
    Идентификатор кодека : V_MPEG4/ISO/AVC
    Продолжительность : 1 ч. 32 м.
    Вид битрейта : Переменный
    Максимальный битрейт : 4000 Кбит/сек
    Ширина : 1280 пикселей
    Высота : 720 пикселей
    Соотношение сторон : 16:9
    Режим частоты кадров : Постоянный
    Частота кадров : 25,000 кадров/сек
    Цветовое пространство : YUV
    Субдискретизация насыщенности : 4:2:0
    Битовая глубина : 8 бит
    Тип развёртки : Прогрессивная
    Заголовок : Immortalizer.720p
    Default : Нет
    Forced : Нет
    Аудио #1
    Идентификатор : 2
    Формат : AC-3
    Формат/Информация : Audio Coding 3
    Расширение режима : CM (complete main)
    Параметр Endianness формата : Big
    Идентификатор кодека : A_AC3
    Продолжительность : 1 ч. 32 м.
    Вид битрейта : Постоянный
    Битрейт : 192 Кбит/сек
    Каналы : 2 канала
    Расположение каналов : Front: L R
    Частота : 48,0 КГц
    Метод сжатия : С потерями
    Размер потока : 127 Мбайт (5%)
    Заголовок : Serbin AC3 2.0 192 kbps
    Язык : Russian
    Default : Нет
    Forced : Нет
    Аудио #2
    Идентификатор : 3
    Формат : AC-3
    Формат/Информация : Audio Coding 3
    Расширение режима : CM (complete main)
    Параметр Endianness формата : Big
    Идентификатор кодека : A_AC3
    Продолжительность : 1 ч. 32 м.
    Вид битрейта : Постоянный
    Битрейт : 128 Кбит/сек
    Каналы : 1 канал
    Расположение каналов : Front: C
    Частота : 48,0 КГц
    Метод сжатия : С потерями
    Размер потока : 84,5 Мбайт (3%)
    Заголовок : Gavrilov AC3 1.0 128 kbps
    Язык : Russian
    Default : Нет
    Forced : Нет
    Аудио #3
    Идентификатор : 4
    Формат : AAC
    Формат/Информация : Advanced Audio Codec
    Профиль формата : LC
    Идентификатор кодека : A_AAC
    Продолжительность : 1 ч. 32 м.
    Каналы : 2 канала
    Расположение каналов : Front: L R
    Частота : 48,0 КГц
    Метод сжатия : С потерями
    Заголовок : Original AAC-LC 2.0 192 kbps
    Язык : English
    Default : Нет
    Forced : Нет

    Скриншоты

    Скачать .torrent

    Скачать торрент-файл бесплатно и на максимальной скорости!

    Как скачивать? · Что такое торрент? · Рейтинг и ограничения

    !ВНИМАНИЕ!
    Сайт не распространяет и не хранит электронные версии произведений, а занимается лишь лишь предоставлением доступа к создаваемому пользователями каталогу ссылок на торрент-файлы, которые содержат только списки хеш-сумм, убедительная просьба с жалобами обращаться напрямую к пользователю. Файлы для обмена на трекере предоставлены пользователями сайта, и администрация не несёт ответственности за их содержание. Просьба не заливать файлы, защищенные авторскими правами, а также файлы нелегального содержания!


    _________________
    [Профиль] [ЛС]
    Показать сообщения:    
    Ответить на тему

    Текущее время: Сегодня, в 00:30

    Часовой пояс: GMT + 2



    Вы не можете начинать темы
    Вы не можете отвечать на сообщения
    Вы не можете редактировать свои сообщения
    Вы не можете удалять свои сообщения
    Вы не можете голосовать в опросах
    Вы не можете прикреплять файлы к сообщениям
    Вы не можете скачивать файлы