BitTorrentTracker PerecTracker.org
BitTorrentTracker PerecTracker.org
    
Регистрация  ·  Вход
 
 · 
Забыли пароль?

  • Мастер / The Master (Пол Томас Андерсон / Paul Thomas Anderson) [2012, США, драма, BDRemux 1080p] [NOR] Dub + AVO (Сербин) + Original (Eng) + Sub (Rus, Eng)

    Ответить на тему
     
    Автор Сообщение

    Light

    Создавать темы 13-Июн-2016 16:23

           

    [Цитировать]

    Мастер / The Master

    -
    -Страна: США
    Студия: Annapurna Pictures
    Жанр: драма
    Год выпуска: 2012
    Продолжительность: 02:17:31--Перевод 1: Профессиональный (дублированный) Blu-Ray
    Перевод 2: Авторский (одноголосый закадровый) Ю. Сербин
    Cубтитры: русские (Blu-ray, notabenoid, Crafty, voronine), английские
    Оригинальная аудиодорожка: английский--Режиссер: Пол Томас Андерсон / Paul Thomas Anderson
    В ролях: Хоакин Феникс, Филип Сеймур Хоффман, Эми Адамс, Лора Дерн, Джесси Племонс, Эмбир Чайлдерс, Рэми Малек, Мартин Д. Дью, Кевин Дж. О’Коннор, Патриция МакКормак--Описание: Демобилизованный моряк с загадочным прошлым не может найти места в послевоенной Америке. Он меняет одну работу за другой, пока случайно не знакомится с харизматичным создателем религиозного культа, известным писателем и философом. К удивлению приверженцев модного учения, их гуру делает агрессивного маргинала своим ближайшим помощником. По мере того как новая вера завоевывает поклонников, бывший бродяга начинает задаваться вопросами о том, во что он верит, и кем является его наставник на самом деле. Но некоторым тайнам лучше оставаться нераскрытыми…-- | | Сэмпл--Тип релиза: BDRemux 1080p [The Master 2012 1080p NOR Blu-ray AVC DTS-HD MA 5.1-HDMike]
    Контейнер: MKV
    Видео: MPEG-4 AVC / 33014 kbps / 1920x1080 / 23,976 fps / 16:9 / High Profile 4.1
    Аудио 1: Russian DTS-HD Master Audio / 5.1 / 48 kHz / 3450 kbps / 24 bits (DTS Core: 5.1 / 48 kHz / 1509 kbps / 24 bits) |Dub, Blu-Ray|
    Аудио 2: Russian DTS-HD Master Audio / 5.1 / 48 kHz / 3260 kbps / 24 bits (DTS Core: 5.1 / 48 kHz / 1509 kbps / 24 bits) |Ю. Сербин|
    Аудио 3: English DTS-HD Master Audio / 5.1 / 48 kHz / 3358 kbps / 24 bits (DTS Core: 5.1 / 48 kHz / 1509 kbps / 24 bits) |original|
    Формат субтитров: softsub [SRT]

    MediaInfo

    Общее
    Уникальный идентификатор                 : 219432013773580946857783869547780954721 (0xA5151190517F17EA906EEC8DEEBEDA61)
    Полное имя                               : G:\HD\Мастер.2012.Blu-Ray.Remux.(1080p).mkv
    Формат                                   : Matroska
    Версия формата                           : Version 4 / Version 2
    Размер файла                             : 41,4 Гбайт
    Продолжительность                        : 2 ч. 17 м.
    Режим общего битрейта                    : Переменный
    Общий поток                              : 43,1 Мбит/сек
    Дата кодирования                         : UTC 2016-06-11 16:39:29
    Программа кодирования                    : mkvmerge v9.2.0 ('Photograph') 64bit
    Библиотека кодирования                   : libebml v1.3.3 + libmatroska v1.4.4
    Attachments                              : poster.jpg
    Видео
    Идентификатор                            : 1
    Формат                                   : AVC
    Формат/Информация                        : Advanced Video Codec
    Профиль формата                          : High@L4.1
    Параметр CABAC формата                   : Да
    Параметр ReFrames формата                : 3 кадра
    Идентификатор кодека                     : V_MPEG4/ISO/AVC
    Продолжительность                        : 2 ч. 17 м.
    Вид битрейта                             : Переменный
    Битрейт                                  : 33,0 Мбит/сек
    Номинальный битрейт                      : 38,0 Мбит/сек
    Максимальный битрейт                     : 38,0 Мбит/сек
    Ширина                                   : 1920 пикселей
    Высота                                   : 1080 пикселей
    Соотношение сторон                       : 16:9
    Режим частоты кадров                     : Постоянный
    Частота кадров                           : 23,976 (24000/1001) кадра/сек
    Цветовое пространство                    : YUV
    Субдискретизация насыщенности            : 4:2:0
    Битовая глубина                          : 8 бит
    Тип развёртки                            : Прогрессивная
    Бит/(Пиксели*Кадры)                      : 0.664
    Размер потока                            : 31,7 Гбайт (77%)
    Библиотека кодирования                   : x264 core 129 r2245 bc13772
    Настройки программы                      : cabac=1 / ref=4 / deblock=1:-1:-1 / analyse=0x3:0x133 / me=umh / subme=10 / psy=1 / psy_rd=1.00:0.15 / mixed_ref=1 / me_range=24 / chroma_me=1 / trellis=2 / 8x8dct=1 / cqm=0 / deadzone=21,11 / fast_pskip=1 / chroma_qp_offset=-3 / threads=36 / lookahead_threads=6 / sliced_threads=0 / slices=4 / nr=0 / decimate=1 / interlaced=0 / bluray_compat=1 / constrained_intra=0 / bframes=3 / b_pyramid=1 / b_adapt=2 / b_bias=0 / direct=3 / weightb=1 / open_gop=1 / weightp=1 / keyint=24 / keyint_min=1 / scenecut=40 / intra_refresh=0 / rc_lookahead=24 / rc=cbr / mbtree=1 / bitrate=38000 / ratetol=1.0 / qcomp=0.60 / qpmin=0 / qpmax=69 / qpstep=4 / vbv_maxrate=38000 / vbv_bufsize=30000 / nal_hrd=vbr / ip_ratio=1.40 / aq=1:1.00
    Default                                  : Да
    Forced                                   : Нет
    Цветовой диапазон                        : Limited
    Основные цвета                           : BT.709
    Характеристики трансфера                 : BT.709
    Коэффициенты матрицы                     : BT.709
    Аудио #1
    Идентификатор                            : 2
    Формат                                   : DTS
    Формат/Информация                        : Digital Theater Systems
    Профиль формата                          : MA / Core
    Режим                                    : 16
    Параметр Endianness формата              : Big
    Идентификатор кодека                     : A_DTS
    Продолжительность                        : 2 ч. 17 м.
    Вид битрейта                             : Переменный / Постоянный
    Битрейт                                  : 3450 Кбит/сек / 1509 Кбит/сек
    Каналы                                   : 6 каналов
    Расположение каналов                     : Front: L C R, Side: L R, LFE
    Частота                                  : 48,0 КГц
    Частота кадров                           : 93,750 кадра/сек (512 spf)
    Битовая глубина                          : 24 бит
    Метод сжатия                             : Без потерь / Lossy
    Размер потока                            : 3,31 Гбайт (8%)
    Заголовок                                : Dub, Blu-Ray
    Язык                                     : Russian
    Default                                  : Да
    Forced                                   : Нет
    Аудио #2
    Идентификатор                            : 3
    Формат                                   : DTS
    Формат/Информация                        : Digital Theater Systems
    Профиль формата                          : MA / Core
    Режим                                    : 16
    Параметр Endianness формата              : Big
    Идентификатор кодека                     : A_DTS
    Продолжительность                        : 2 ч. 17 м.
    Вид битрейта                             : Переменный / Постоянный
    Битрейт                                  : 3260 Кбит/сек / 1509 Кбит/сек
    Каналы                                   : 6 каналов
    Расположение каналов                     : Front: L C R, Side: L R, LFE
    Частота                                  : 48,0 КГц
    Частота кадров                           : 93,750 кадра/сек (512 spf)
    Битовая глубина                          : 24 бит
    Метод сжатия                             : Без потерь / Lossy
    Размер потока                            : 3,13 Гбайт (8%)
    Заголовок                                : Ю. Сербин
    Язык                                     : Russian
    Default                                  : Нет
    Forced                                   : Нет
    Аудио #3
    Идентификатор                            : 4
    Формат                                   : DTS
    Формат/Информация                        : Digital Theater Systems
    Профиль формата                          : MA / Core
    Режим                                    : 16
    Параметр Endianness формата              : Big
    Идентификатор кодека                     : A_DTS
    Продолжительность                        : 2 ч. 17 м.
    Вид битрейта                             : Переменный / Постоянный
    Битрейт                                  : 3358 Кбит/сек / 1509 Кбит/сек
    Каналы                                   : 6 каналов
    Расположение каналов                     : Front: L C R, Side: L R, LFE
    Частота                                  : 48,0 КГц
    Частота кадров                           : 93,750 кадра/сек (512 spf)
    Битовая глубина                          : 24 бит
    Метод сжатия                             : Без потерь / Lossy
    Размер потока                            : 3,23 Гбайт (8%)
    Язык                                     : English
    Default                                  : Нет
    Forced                                   : Нет
    Текст #1
    Идентификатор                            : 5
    Формат                                   : UTF-8
    Идентификатор кодека                     : S_TEXT/UTF8
    Идентификатор кодека/Информация          : UTF-8 Plain Text
    Продолжительность                        : 2 ч. 12 м.
    Битрейт                                  : 75 бит/сек
    Count of elements                        : 1515
    Размер потока                            : 72,8 Кбайт (0%)
    Заголовок                                : Blu-Ray
    Язык                                     : Russian
    Default                                  : Нет
    Forced                                   : Нет
    Текст #2
    Идентификатор                            : 6
    Формат                                   : UTF-8
    Идентификатор кодека                     : S_TEXT/UTF8
    Идентификатор кодека/Информация          : UTF-8 Plain Text
    Продолжительность                        : 2 ч. 9 м.
    Битрейт                                  : 83 бит/сек
    Count of elements                        : 1453
    Размер потока                            : 78,8 Кбайт (0%)
    Заголовок                                : notabenoid
    Язык                                     : Russian
    Default                                  : Нет
    Forced                                   : Нет
    Текст #3
    Идентификатор                            : 7
    Формат                                   : UTF-8
    Идентификатор кодека                     : S_TEXT/UTF8
    Идентификатор кодека/Информация          : UTF-8 Plain Text
    Продолжительность                        : 2 ч. 8 м.
    Битрейт                                  : 86 бит/сек
    Count of elements                        : 1432
    Размер потока                            : 81,4 Кбайт (0%)
    Заголовок                                : Crafty
    Язык                                     : Russian
    Default                                  : Нет
    Forced                                   : Нет
    Текст #4
    Идентификатор                            : 8
    Формат                                   : UTF-8
    Идентификатор кодека                     : S_TEXT/UTF8
    Идентификатор кодека/Информация          : UTF-8 Plain Text
    Продолжительность                        : 2 ч. 10 м.
    Битрейт                                  : 81 бит/сек
    Count of elements                        : 1496
    Размер потока                            : 78,4 Кбайт (0%)
    Заголовок                                : voronine
    Язык                                     : Russian
    Default                                  : Нет
    Forced                                   : Нет
    Текст #5
    Идентификатор                            : 9
    Формат                                   : UTF-8
    Идентификатор кодека                     : S_TEXT/UTF8
    Идентификатор кодека/Информация          : UTF-8 Plain Text
    Продолжительность                        : 2 ч. 8 м.
    Битрейт                                  : 48 бит/сек
    Count of elements                        : 1448
    Размер потока                            : 45,9 Кбайт (0%)
    Язык                                     : English
    Default                                  : Нет
    Forced                                   : Нет
    Меню
    00:00:00.000                             : :Chapter 01
    00:09:31.571                             : :Chapter 02
    00:16:10.052                             : :Chapter 03
    00:26:35.218                             : :Chapter 04
    00:34:40.161                             : :Chapter 05
    00:43:59.928                             : :Chapter 06
    00:52:29.688                             : :Chapter 07
    01:00:56.944                             : :Chapter 08
    01:09:38.841                             : :Chapter 09
    01:16:38.927                             : :Chapter 10
    01:24:14.257                             : :Chapter 11
    01:33:18.759                             : :Chapter 12
    01:43:35.500                             : :Chapter 13
    01:51:45.115                             : :Chapter 14
    01:58:10.625                             : :Chapter 15
    02:11:15.742                             : :Chapter 16

    Скриншоты


    Дополнительно
    Цитата:
    Цитата:

    За исходник видео взят норвежский трансфер.
    Цитата:
    Цитата:

    За дорожки №1,2 спасибо HDCLUB
    Цитата:
    Цитата:

    Перевод Ю.Сербина выкуплен в рамках сервиса "Озвучивание". Спонсоры: denismgn1987, John05, Dervish, Loki1982 и пользователи форума e180

    Сравнение трансферов

    US Blu-ray VS NOR Blu-ray (этот релиз)


    Инфо основного бранча (.m2ts-файла) исходного блюрей диска

    Общее
    Идентификатор                            : 0 (0x0)
    Полное имя                               : H:\Без перевода\The Master 2012 1080p NOR Blu-ray AVC DTS-HD MA 5.1-HDMike\The Master - NOR_FIN\BDMV\STREAM\00013.m2ts
    Формат                                   : BDAV
    Формат/Информация                        : Blu-ray Video
    Размер файла                             : 37,5 Гбайт
    Продолжительность                        : 2 ч. 17 м.
    Режим общего битрейта                    : Переменный
    Общий поток                              : 39,1 Мбит/сек
    Максимальный общий битрейт               : 48,0 Мбит/сек
    Видео
    Идентификатор                            : 4113 (0x1011)
    Идентификатор меню                       : 1 (0x1)
    Формат                                   : AVC
    Формат/Информация                        : Advanced Video Codec
    Профиль формата                          : High@L4.1
    Параметр CABAC формата                   : Да
    Параметр ReFrames формата                : 3 кадра
    Идентификатор кодека                     : 27
    Продолжительность                        : 2 ч. 17 м.
    Вид битрейта                             : Переменный
    Номинальный битрейт                      : 38,0 Мбит/сек
    Максимальный битрейт                     : 38,0 Мбит/сек
    Ширина                                   : 1920 пикселей
    Высота                                   : 1080 пикселей
    Соотношение сторон                       : 16:9
    Частота кадров                           : 23,976 (24000/1001) кадра/сек
    Цветовое пространство                    : YUV
    Субдискретизация насыщенности            : 4:2:0
    Битовая глубина                          : 8 бит
    Тип развёртки                            : Прогрессивная
    Бит/(Пиксели*Кадры)                      : 0.764
    Библиотека кодирования                   : x264 core 129 r2245 bc13772
    Настройки программы                      : cabac=1 / ref=4 / deblock=1:-1:-1 / analyse=0x3:0x133 / me=umh / subme=10 / psy=1 / psy_rd=1.00:0.15 / mixed_ref=1 / me_range=24 / chroma_me=1 / trellis=2 / 8x8dct=1 / cqm=0 / deadzone=21,11 / fast_pskip=1 / chroma_qp_offset=-3 / threads=36 / lookahead_threads=6 / sliced_threads=0 / slices=4 / nr=0 / decimate=1 / interlaced=0 / bluray_compat=1 / constrained_intra=0 / bframes=3 / b_pyramid=1 / b_adapt=2 / b_bias=0 / direct=3 / weightb=1 / open_gop=1 / weightp=1 / keyint=24 / keyint_min=1 / scenecut=40 / intra_refresh=0 / rc_lookahead=24 / rc=cbr / mbtree=1 / bitrate=38000 / ratetol=1.0 / qcomp=0.60 / qpmin=0 / qpmax=69 / qpstep=4 / vbv_maxrate=38000 / vbv_bufsize=30000 / nal_hrd=vbr / ip_ratio=1.40 / aq=1:1.00
    Цветовой диапазон                        : Limited
    Основные цвета                           : BT.709
    Характеристики трансфера                 : BT.709
    Коэффициенты матрицы                     : BT.709
    Аудио #1
    Идентификатор                            : 4352 (0x1100)
    Идентификатор меню                       : 1 (0x1)
    Формат                                   : AC-3
    Формат/Информация                        : Audio Coding 3
    Расширение режима                        : CM (complete main)
    Параметр Endianness формата              : Big
    Идентификатор кодека                     : 129
    Продолжительность                        : 2 ч. 17 м.
    Вид битрейта                             : Постоянный
    Битрейт                                  : 640 Кбит/сек
    Каналы                                   : 6 каналов
    Расположение каналов                     : Front: L C R, Side: L R, LFE
    Частота                                  : 48,0 КГц
    Частота кадров                           : 31,250 кадров/сек (1536 spf)
    Метод сжатия                             : С потерями
    Размер потока                            : 630 Мбайт (2%)
    Аудио #2
    Идентификатор                            : 4353 (0x1101)
    Идентификатор меню                       : 1 (0x1)
    Формат                                   : DTS
    Формат/Информация                        : Digital Theater Systems
    Профиль формата                          : MA / Core
    Режим                                    : 16
    Параметр Endianness формата              : Big
    Режим смешивания                         : Stream extension
    Идентификатор кодека                     : 134
    Продолжительность                        : 2 ч. 17 м.
    Вид битрейта                             : Переменный / Постоянный
    Битрейт                                  : Неизвестно / 1509 Кбит/сек
    Каналы                                   : 6 каналов
    Расположение каналов                     : Front: L C R, Side: L R, LFE
    Частота                                  : 48,0 КГц
    Частота кадров                           : 93,750 кадра/сек (512 spf)
    Битовая глубина                          : 24 бит
    Метод сжатия                             : Без потерь / Lossy
    Текст #1
    Идентификатор                            : 4608 (0x1200)
    Идентификатор меню                       : 1 (0x1)
    Формат                                   : PGS
    Идентификатор кодека                     : 144
    Текст #2
    Идентификатор                            : 4609 (0x1201)
    Идентификатор меню                       : 1 (0x1)
    Формат                                   : PGS
    Идентификатор кодека                     : 144
    Текст #3
    Идентификатор                            : 4610 (0x1202)
    Идентификатор меню                       : 1 (0x1)
    Формат                                   : PGS
    Идентификатор кодека                     : 144
    Скачать .torrent

    Скачать торрент-файл бесплатно и на максимальной скорости!

    Как скачивать? · Что такое торрент? · Рейтинг и ограничения

    !ВНИМАНИЕ!
    Сайт не распространяет и не хранит электронные версии произведений, а занимается лишь лишь предоставлением доступа к создаваемому пользователями каталогу ссылок на торрент-файлы, которые содержат только списки хеш-сумм, убедительная просьба с жалобами обращаться напрямую к пользователю. Файлы для обмена на трекере предоставлены пользователями сайта, и администрация не несёт ответственности за их содержание. Просьба не заливать файлы, защищенные авторскими правами, а также файлы нелегального содержания!


    _________________
    [Профиль] [ЛС]
    Показать сообщения:    
    Ответить на тему

    Текущее время: Сегодня, в 12:02

    Часовой пояс: GMT + 2



    Вы не можете начинать темы
    Вы не можете отвечать на сообщения
    Вы не можете редактировать свои сообщения
    Вы не можете удалять свои сообщения
    Вы не можете голосовать в опросах
    Вы не можете прикреплять файлы к сообщениям
    Вы не можете скачивать файлы