BitTorrentTracker PerecTracker.org
BitTorrentTracker PerecTracker.org
    
Регистрация  ·  Вход
 
 · 
Забыли пароль?

  • Мастер / The Master (Пол Томас Андерсон / Paul Thomas Anderson) [2012, США, драма, BDRip 720p] Dub + AVO (Сербин) + Original (Eng) + Sub (Rus, Eng)

    Ответить на тему
     
    Автор Сообщение

    Light

    Создавать темы 13-Июн-2016 16:23

           

    [Цитировать]

    Мастер / The Master

    -
    -Страна: США
    Студия: Annapurna Pictures
    Жанр: драма
    Год выпуска: 2012
    Продолжительность: 02:17:31--Перевод 1: Профессиональный (дублированный) Blu-Ray
    Перевод 2: Авторский (одноголосый закадровый) Ю. Сербин
    Cубтитры: русские (Blu-ray, notabenoid, Crafty, voronine), английские
    Оригинальная аудиодорожка: английский--Режиссер: Пол Томас Андерсон / Paul Thomas Anderson
    В ролях: Хоакин Феникс, Филип Сеймур Хоффман, Эми Адамс, Лора Дерн, Джесси Племонс, Эмбир Чайлдерс, Рэми Малек, Мартин Д. Дью, Кевин Дж. О’Коннор, Патриция МакКормак--Описание: Демобилизованный моряк с загадочным прошлым не может найти места в послевоенной Америке. Он меняет одну работу за другой, пока случайно не знакомится с харизматичным создателем религиозного культа, известным писателем и философом. К удивлению приверженцев модного учения, их гуру делает агрессивного маргинала своим ближайшим помощником. По мере того как новая вера завоевывает поклонников, бывший бродяга начинает задаваться вопросами о том, во что он верит, и кем является его наставник на самом деле. Но некоторым тайнам лучше оставаться нераскрытыми…-- | | Сэмпл--Тип релиза: BDRip 720p [The Master 2012 720p BluRay DD5.1 x264-RightSiZE]
    Контейнер: MKV
    Видео: MPEG-4 AVC / 5400 kbps / 1280x690 / 23,976 fps / 1,85:1 / High Profile 4.1
    Аудио 1: Russian AC3 / 5.1 / 48 kHz / 640 kbps / 16 bits |Dub, Blu-Ray|
    Аудио 2: Russian AC3 / 5.1 / 48 kHz / 640 kbps / 16 bits |Ю. Сербин|
    Аудио 3: English AC3 / 5.1 / 48 kHz / 640 kbps / 16 bits |original|
    Формат субтитров: softsub [SRT]

    MediaInfo

    Общее
    Уникальный идентификатор                 : 209260866299539154860701578535325336626 (0x9D6E2D46A9860615958E329DA74B0432)
    Полное имя                               : G:\HD\Мастер.2012.BDRip.(720p).mkv
    Формат                                   : Matroska
    Версия формата                           : Version 4 / Version 2
    Размер файла                             : 7,03 Гбайт
    Продолжительность                        : 2 ч. 17 м.
    Общий поток                              : 7322 Кбит/сек
    Дата кодирования                         : UTC 2016-06-11 18:59:06
    Программа кодирования                    : mkvmerge v9.2.0 ('Photograph') 64bit
    Библиотека кодирования                   : libebml v1.3.3 + libmatroska v1.4.4
    Attachments                              : poster.jpg
    Видео
    Идентификатор                            : 1
    Формат                                   : AVC
    Формат/Информация                        : Advanced Video Codec
    Профиль формата                          : High@L4.1
    Параметр CABAC формата                   : Да
    Параметр ReFrames формата                : 9 кадров
    Идентификатор кодека                     : V_MPEG4/ISO/AVC
    Продолжительность                        : 2 ч. 17 м.
    Битрейт                                  : 5400 Кбит/сек
    Ширина                                   : 1280 пикселей
    Высота                                   : 690 пикселей
    Соотношение сторон                       : 1,85:1
    Режим частоты кадров                     : Постоянный
    Частота кадров                           : 23,976 (24000/1001) кадра/сек
    Цветовое пространство                    : YUV
    Субдискретизация насыщенности            : 4:2:0
    Битовая глубина                          : 8 бит
    Тип развёртки                            : Прогрессивная
    Бит/(Пиксели*Кадры)                      : 0.255
    Размер потока                            : 5,19 Гбайт (74%)
    Заголовок                                : The Master 2012 720p BluRay DD5.1 x264-RightSiZE
    Библиотека кодирования                   : x264 core 148 r2694 3b70645
    Настройки программы                      : cabac=1 / ref=9 / deblock=1:-3:-3 / analyse=0x3:0x113 / me=umh / subme=9 / psy=1 / psy_rd=1.00:0.00 / mixed_ref=1 / me_range=32 / chroma_me=1 / trellis=2 / 8x8dct=1 / cqm=1 / deadzone=21,11 / fast_pskip=0 / chroma_qp_offset=-1 / threads=6 / lookahead_threads=1 / sliced_threads=0 / nr=0 / decimate=1 / interlaced=0 / bluray_compat=0 / constrained_intra=0 / bframes=8 / b_pyramid=2 / b_adapt=2 / b_bias=0 / direct=3 / weightb=1 / open_gop=0 / weightp=2 / keyint=230 / keyint_min=23 / scenecut=40 / intra_refresh=0 / rc_lookahead=40 / rc=2pass / mbtree=0 / bitrate=5400 / ratetol=1.0 / qcomp=0.60 / qpmin=2 / qpmax=61 / qpstep=4 / cplxblur=20.0 / qblur=0.5 / vbv_maxrate=62500 / vbv_bufsize=78125 / nal_hrd=none / filler=0 / ip_ratio=1.00 / pb_ratio=1.00 / aq=3:0.65
    Язык                                     : English
    Default                                  : Да
    Forced                                   : Нет
    Аудио #1
    Идентификатор                            : 2
    Формат                                   : AC-3
    Формат/Информация                        : Audio Coding 3
    Расширение режима                        : CM (complete main)
    Параметр Endianness формата              : Big
    Идентификатор кодека                     : A_AC3
    Продолжительность                        : 2 ч. 17 м.
    Вид битрейта                             : Постоянный
    Битрейт                                  : 640 Кбит/сек
    Каналы                                   : 6 каналов
    Расположение каналов                     : Front: L C R, Side: L R, LFE
    Частота                                  : 48,0 КГц
    Частота кадров                           : 31,250 кадров/сек (1536 spf)
    Метод сжатия                             : С потерями
    Размер потока                            : 629 Мбайт (9%)
    Заголовок                                : Dub, Blu-Ray
    Язык                                     : Russian
    Default                                  : Да
    Forced                                   : Нет
    Аудио #2
    Идентификатор                            : 3
    Формат                                   : AC-3
    Формат/Информация                        : Audio Coding 3
    Расширение режима                        : CM (complete main)
    Параметр Endianness формата              : Big
    Идентификатор кодека                     : A_AC3
    Продолжительность                        : 2 ч. 17 м.
    Вид битрейта                             : Постоянный
    Битрейт                                  : 640 Кбит/сек
    Каналы                                   : 6 каналов
    Расположение каналов                     : Front: L C R, Side: L R, LFE
    Частота                                  : 48,0 КГц
    Частота кадров                           : 31,250 кадров/сек (1536 spf)
    Метод сжатия                             : С потерями
    Размер потока                            : 629 Мбайт (9%)
    Заголовок                                : Ю. Сербин
    Язык                                     : Russian
    Default                                  : Нет
    Forced                                   : Нет
    Аудио #3
    Идентификатор                            : 4
    Формат                                   : AC-3
    Формат/Информация                        : Audio Coding 3
    Расширение режима                        : CM (complete main)
    Параметр Endianness формата              : Big
    Идентификатор кодека                     : A_AC3
    Продолжительность                        : 2 ч. 17 м.
    Вид битрейта                             : Постоянный
    Битрейт                                  : 640 Кбит/сек
    Каналы                                   : 6 каналов
    Расположение каналов                     : Front: L C R, Side: L R, LFE
    Частота                                  : 48,0 КГц
    Частота кадров                           : 31,250 кадров/сек (1536 spf)
    Метод сжатия                             : С потерями
    Размер потока                            : 630 Мбайт (9%)
    Язык                                     : English
    Default                                  : Нет
    Forced                                   : Нет
    Текст #1
    Идентификатор                            : 5
    Формат                                   : UTF-8
    Идентификатор кодека                     : S_TEXT/UTF8
    Идентификатор кодека/Информация          : UTF-8 Plain Text
    Продолжительность                        : 2 ч. 12 м.
    Битрейт                                  : 75 бит/сек
    Count of elements                        : 1515
    Размер потока                            : 72,8 Кбайт (0%)
    Заголовок                                : Blu-Ray
    Язык                                     : Russian
    Default                                  : Нет
    Forced                                   : Нет
    Текст #2
    Идентификатор                            : 6
    Формат                                   : UTF-8
    Идентификатор кодека                     : S_TEXT/UTF8
    Идентификатор кодека/Информация          : UTF-8 Plain Text
    Продолжительность                        : 2 ч. 9 м.
    Битрейт                                  : 83 бит/сек
    Count of elements                        : 1453
    Размер потока                            : 78,8 Кбайт (0%)
    Заголовок                                : notabenoid
    Язык                                     : Russian
    Default                                  : Нет
    Forced                                   : Нет
    Текст #3
    Идентификатор                            : 7
    Формат                                   : UTF-8
    Идентификатор кодека                     : S_TEXT/UTF8
    Идентификатор кодека/Информация          : UTF-8 Plain Text
    Продолжительность                        : 2 ч. 8 м.
    Битрейт                                  : 86 бит/сек
    Count of elements                        : 1432
    Размер потока                            : 81,4 Кбайт (0%)
    Заголовок                                : Crafty
    Язык                                     : Russian
    Default                                  : Нет
    Forced                                   : Нет
    Текст #4
    Идентификатор                            : 8
    Формат                                   : UTF-8
    Идентификатор кодека                     : S_TEXT/UTF8
    Идентификатор кодека/Информация          : UTF-8 Plain Text
    Продолжительность                        : 2 ч. 10 м.
    Битрейт                                  : 81 бит/сек
    Count of elements                        : 1496
    Размер потока                            : 78,4 Кбайт (0%)
    Заголовок                                : voronine
    Язык                                     : Russian
    Default                                  : Нет
    Forced                                   : Нет
    Текст #5
    Идентификатор                            : 9
    Формат                                   : UTF-8
    Идентификатор кодека                     : S_TEXT/UTF8
    Идентификатор кодека/Информация          : UTF-8 Plain Text
    Продолжительность                        : 2 ч. 8 м.
    Битрейт                                  : 48 бит/сек
    Count of elements                        : 1448
    Размер потока                            : 45,9 Кбайт (0%)
    Язык                                     : English
    Default                                  : Нет
    Forced                                   : Нет
    Меню
    00:00:00.000                             : :Chapter 01
    00:09:31.571                             : :Chapter 02
    00:16:10.052                             : :Chapter 03
    00:26:35.218                             : :Chapter 04
    00:34:40.161                             : :Chapter 05
    00:43:59.928                             : :Chapter 06
    00:52:29.688                             : :Chapter 07
    01:00:56.944                             : :Chapter 08
    01:09:38.841                             : :Chapter 09
    01:16:38.927                             : :Chapter 10
    01:24:14.257                             : :Chapter 11
    01:33:18.759                             : :Chapter 12
    01:43:35.500                             : :Chapter 13
    01:51:45.115                             : :Chapter 14
    01:58:10.625                             : :Chapter 15
    02:11:15.742                             : :Chapter 16

    Скриншоты


    Дополнительно
    Цитата:
    Цитата:

    За дорожки №1,2 спасибо HDCLUB
    Цитата:
    Цитата:

    Перевод Ю.Сербина выкуплен в рамках сервиса "Озвучивание". Спонсоры: denismgn1987, John05, Dervish, Loki1982 и пользователи форума e180

    The Master 2012 720p BluRay DD5.1 x264-RightSiZE

    The Master 2012 720p BluRay DD5.1 x264-RightSiZE
    RUNTiME..........: 2:17:31
    SiZE.............: 5,80 GB
    ViDEO CODEC......: x264 r2692, 2pass, L4.1
    FRAMERATE........: 23.976 fps
    VIDEO BiTRATE....: variable - 5400 Kbps
    DXVA.............: Yeah
    RESOLUTiON.......: 1280x690
    AUDiO 1..........: English AC3 5.1 @ 640 Kbps
    SUBTiTLES........: Eng
    CHAPTERS.........: Yeah (numbered)
    SOURCE...........: 1080p NOR Blu-ray AVC DTS-HD MA 5.1-HDMike (33014 kbps)
    iMDB.............: http://www.imdb.com/title/tt1560747/
    iMDB RATING......: 7.1/10  (102,546 votes)
    GENRE............: Drama
    RELEASE DATE.....: 05/09/2016
    NUMBER OF ENCODE.: 325.
    ENCODER..........: S to the G
    ENCODER'S NOTES..: USA BD was crushed and looked a bit oversaturated.
    NOR looks right.
    Slight debanding to avoid any on a few scenes.
    All around dirties fixed with overlay, balanceborders on the sides.
    Cropped 1-1 dirty line from top/bottom as fixing gave terrible results.
    COMMENTARY.......: -
    ---------------------------------------------------------------------------------
    ---------------------------------------------------------------------------------
    ------------------WHEN NOBODY CARES ABOUT THE SiZES, I STEP iN!------------------
    ---------------------------------------------------------------------------------
    RightSiZE -- Source -- tranc




    Скачать .torrent

    Скачать торрент-файл бесплатно и на максимальной скорости!

    Как скачивать? · Что такое торрент? · Рейтинг и ограничения

    !ВНИМАНИЕ!
    Сайт не распространяет и не хранит электронные версии произведений, а занимается лишь лишь предоставлением доступа к создаваемому пользователями каталогу ссылок на торрент-файлы, которые содержат только списки хеш-сумм, убедительная просьба с жалобами обращаться напрямую к пользователю. Файлы для обмена на трекере предоставлены пользователями сайта, и администрация не несёт ответственности за их содержание. Просьба не заливать файлы, защищенные авторскими правами, а также файлы нелегального содержания!


    _________________
    [Профиль] [ЛС]
    Показать сообщения:    
    Ответить на тему

    Текущее время: Сегодня, в 06:54

    Часовой пояс: GMT + 2



    Вы не можете начинать темы
    Вы не можете отвечать на сообщения
    Вы не можете редактировать свои сообщения
    Вы не можете удалять свои сообщения
    Вы не можете голосовать в опросах
    Вы не можете прикреплять файлы к сообщениям
    Вы не можете скачивать файлы