BitTorrentTracker PerecTracker.org
BitTorrentTracker PerecTracker.org
    
Регистрация  ·  Вход
 
 · 
Забыли пароль?

  • Братья из Гримсби / Grimsby (Луи Летерье / Louis Leterrier) [2016, Великобритания, Австралия, боевик, комедия, BDRemux 1080p] Dub (iTunes) + VO (Котов) + Sub Rus, Eng + Original Eng

    Ответить на тему
     
    Автор Сообщение

    Light

    Создавать темы 13-Июн-2016 16:23

           

    [Цитировать]

    -Братья из Гримсби / Grimsby-Страна: Великобритания, Австралия
    Жанр: Боевик, комедия
    Год выпуска: 2016
    Продолжительность: 1:23:12-Перевод: Профессиональный (дублированный) iTunes
    Перевод 2: Одноголосый закадровый Вячеслав Котов
    Cубтитры: русские (полные и форсированные), английские
    Оригинальная аудиодорожка: английский-Режиссер: Луи Летерье / Louis Leterrier
    В ролях: Саша Барон Коэн, Марк Стронг, Ребел Уилсон, Пенелопа Крус, Айла Фишер, Скотт Эдкинс, Иэн МакШейн, Габури Сидибе, Аннабелль Уоллис, Дэвид Хэрвуд, Рикки Томлинсон, Джонни Вегас, Сэм Хэзелдайн, Фредди Краудер, Джон-Джон Локвуд, Шон Томас, Клаудия Эдшид, Лекс Шрэпнел-Описание: Сверхсекретная операция, которую выполняет образцовый спецагент, с треском провалена из-за некстати свалившегося на его голову неадекватного брата — оголтелого футбольного фаната и полного беспредельщика. Теперь герою предстоит спасти свою жизнь и вдобавок планету от нависшей над ней угрозы — практически невыполнимая задача в тандеме с вновь приобретенным родственником.-Сэмпл-Тип релиза: BDRemux 1080p
    Контейнер: MKV
    Видео:MPEG-4 AVC Video 24870 kbps 1080p / 23.976 fps / 16:9 / High Profile 4.1
    Аудио: Russian / Dolby Digital Audio / 5.1 / 48 kHz / 384 kbps
    Аудио 2: DTS-HD Master Audio Russian 5.1 / 48 kHz / 2354 kbps / 16-bit (DTS Core: 5.1 / 48 kHz / 1509 kbps / 16-bit)
    Аудио 3: DTS-HD Master Audio English 5.1 / 48 kHz / 2312 kbps / 16-bit (DTS Core: 5.1 / 48 kHz / 1509 kbps / 16-bit)
    Формат субтитров: softsub (SRT)

    MI

    GeneralUnique ID : 202709583204662896130130681710261038450 (0x98807214DC61FC32B02FD6E9DD87ED72)Complete name : L:\На хранении\Братья из Гримсби (2016. Grimsby).mkvFormat : MatroskaFormat version : Version 4 / Version 2File size : 17.4 GiBDuration : 1h 23mnOverall bit rate mode : VariableOverall bit rate : 29.9 MbpsMovie name : Release for RuTrackerEncoded date : UTC 2016-06-11 20:32:49Writing application : mkvmerge v9.0.1 ('Obstacles') 64bitWriting library : libebml v1.3.3 + libmatroska v1.4.4Cover : YesAttachments : cover.jpg
    VideoID : 1Format : AVCFormat/Info : Advanced Video CodecFormat profile : High@L4.1Format settings, CABAC : YesFormat settings, ReFrames : 2 framesFormat settings, GOP : M=1, N=10Codec ID : V_MPEG4/ISO/AVCDuration : 1h 23mnBit rate mode : VariableBit rate : 24.9 MbpsWidth : 1 920 pixelsHeight : 1 080 pixelsDisplay aspect ratio : 16:9Frame rate mode : ConstantFrame rate : 23.976 (24000/1001) fpsColor space : YUVChroma subsampling : 4:2:0Bit depth : 8 bitsScan type : ProgressiveBits/(Pixel*Frame) : 0.500Stream size : 14.5 GiB (83%)Title : Grimsby 2016 1080p Blu-ray AVC DTS-HD MA 5.1-CBGBLanguage : EnglishDefault : YesForced : No
    Audio #1ID : 2Format : AC-3Format/Info : Audio Coding 3Mode extension : CM (complete main)Format settings, Endianness : BigCodec ID : A_AC3Duration : 1h 23mnBit rate mode : ConstantBit rate : 384 KbpsChannel(s) : 6 channelsChannel positions : Front: L C R, Side: L R, LFESampling rate : 48.0 KHzFrame rate : 31.250 fps (1536 spf)Compression mode : LossyStream size : 228 MiB (1%)Title : ДубляжLanguage : RussianDefault : YesForced : No
    Audio #2ID : 3Format : DTSFormat/Info : Digital Theater SystemsFormat profile : MA / CoreMode : 16Format settings, Endianness : BigCodec ID : A_DTSDuration : 1h 23mnBit rate mode : Variable / ConstantBit rate : 2 354 Kbps / 1 509 KbpsChannel(s) : 6 channelsChannel positions : Front: L C R, Side: L R, LFESampling rate : 48.0 KHzFrame rate : 93.750 fps (512 spf)Bit depth : 16 bitsCompression mode : Lossless / LossyStream size : 1.37 GiB (8%)Title : Вячеслав КотовLanguage : RussianDefault : NoForced : No
    Audio #3ID : 4Format : DTSFormat/Info : Digital Theater SystemsFormat profile : MA / CoreMode : 16Format settings, Endianness : BigCodec ID : A_DTSDuration : 1h 23mnBit rate mode : Variable / ConstantBit rate : 2 312 Kbps / 1 509 KbpsChannel(s) : 6 channelsChannel positions : Front: L C R, Side: L R, LFESampling rate : 48.0 KHzFrame rate : 93.750 fps (512 spf)Bit depth : 16 bitsCompression mode : Lossless / LossyStream size : 1.34 GiB (8%)Language : EnglishDefault : NoForced : No
    Text #1ID : 5Format : UTF-8Codec ID : S_TEXT/UTF8Codec ID/Info : UTF-8 Plain TextDuration : 1h 15mnBit rate : 3 bpsCount of elements : 42Stream size : 1.91 KiB (0%)Title : forcedLanguage : RussianDefault : YesForced : No
    Text #2ID : 6Format : UTF-8Codec ID : S_TEXT/UTF8Codec ID/Info : UTF-8 Plain TextDuration : 1h 21mnBit rate : 100 bpsCount of elements : 1122Stream size : 60.3 KiB (0%)Language : RussianDefault : NoForced : No
    Text #3ID : 7Format : UTF-8Codec ID : S_TEXT/UTF8Codec ID/Info : UTF-8 Plain TextDuration : 1h 21mnBit rate : 57 bpsCount of elements : 1062Stream size : 34.6 KiB (0%)Language : EnglishDefault : NoForced : No
    Text #4ID : 8Format : UTF-8Codec ID : S_TEXT/UTF8Codec ID/Info : UTF-8 Plain TextDuration : 1h 22mnBit rate : 69 bpsCount of elements : 1382Stream size : 41.9 KiB (0%)Title : SDHLanguage : EnglishDefault : NoForced : No
    Menu00:00:00.000 : en:00:00:00.00000:06:54.331 : en:00:06:54.33100:11:00.994 : en:00:11:00.99400:16:25.735 : en:00:16:25.73500:21:37.630 : en:00:21:37.63000:26:43.727 : en:00:26:43.72700:31:46.863 : en:00:31:46.86300:36:48.706 : en:00:36:48.70600:41:57.056 : en:00:41:57.05600:46:54.979 : en:00:46:54.97900:52:19.595 : en:00:52:19.59500:57:28.487 : en:00:57:28.48701:01:27.851 : en:01:01:27.85101:06:16.139 : en:01:06:16.13901:11:52.099 : en:01:11:52.09901:16:25.873 : en:01:16:25.873
    Скриншоты

    Зеркало


    Цитата:
    Цитата:

    • Перевод Вячеслава Котова доступен благодаря: mihaildns, 7654, nortonn, Pr0peLLer, ana2363, Shrooms, R.U., marveltm, romic2110, saint-sinner, dabowek, seryoga84. Работа со звуком - Переводман.
    Скачать .torrent

    Скачать торрент-файл бесплатно и на максимальной скорости!

    Как скачивать? · Что такое торрент? · Рейтинг и ограничения

    !ВНИМАНИЕ!
    Сайт не распространяет и не хранит электронные версии произведений, а занимается лишь лишь предоставлением доступа к создаваемому пользователями каталогу ссылок на торрент-файлы, которые содержат только списки хеш-сумм, убедительная просьба с жалобами обращаться напрямую к пользователю. Файлы для обмена на трекере предоставлены пользователями сайта, и администрация не несёт ответственности за их содержание. Просьба не заливать файлы, защищенные авторскими правами, а также файлы нелегального содержания!


    _________________
    [Профиль] [ЛС]
    Показать сообщения:    
    Ответить на тему

    Текущее время: Сегодня, в 22:30

    Часовой пояс: GMT + 2



    Вы не можете начинать темы
    Вы не можете отвечать на сообщения
    Вы не можете редактировать свои сообщения
    Вы не можете удалять свои сообщения
    Вы не можете голосовать в опросах
    Вы не можете прикреплять файлы к сообщениям
    Вы не можете скачивать файлы