BitTorrentTracker PerecTracker.org
BitTorrentTracker PerecTracker.org
    
Регистрация  ·  Вход
 
 · 
Забыли пароль?

  • Лазурный берег / By the Sea (Анджелина Джоли / Angelina Jolie) [2015, США, Франция, драма, мелодрама, BDRip 1080p] Dub + Sub Rus, Eng + Original Eng

    Ответить на тему
     
    Автор Сообщение

    Light

    Создавать темы 13-Июн-2016 16:23

           

    [Цитировать]

    Лазурный берег / By the Sea
    Страна: США, Франция
    Студия: Jolie Pas, Pellikola, Plan B Entertainment, Universal Pictures
    Жанр: драма, мелодрама
    Год выпуска: 2015
    Продолжительность: 02:02:12
    Перевод: Профессиональный (дублированный)
    Cубтитры: Rus, Eng
    Оригинальная аудиодорожка: английский
    Режиссер: Анджелина Джоли / Angelina Jolie
    В ролях: Анджелина Джоли, Брэд Питт, Мелани Лоран, Мельвиль Пупо, Нильс Ареструп, Ришар Боренже, Джордж Камиллери, Анна Качья, Фридерик Десса
    Описание: Франция. Середина 1970-х. Ванесса, бывшая танцовщица, и ее муж Роланд, американский писатель, путешествуют вместе по стране. Понемногу они начинают отдаляться друг от друга, но все меняется, когда они задерживаются в одном тихом приморском городке…

    Тип релиза: BDRip 1080p
    Контейнер: MKV
    Видео: MPEG-4 AVC, 10.4 Mбит/с, 1920x800, 23,976 fps
    Аудио: Rus, AC3, 448 kb/s (6 ch), 48 kHz
    Аудио 2: Eng, DTS, 1510 kb/s (6 ch), 48 kHz
    Формат субтитров: softsub (SRT)

    MediaInfo

    x264 [info]: frame I:1126 Avg QP:11.65 size:290871
    x264 [info]: frame P:36526 Avg QP:13.87 size:108050
    x264 [info]: frame B:138148 Avg QP:15.51 size: 38012
    x264 [info]: consecutive B-frames: 1.6% 2.0% 10.3% 10.6% 15.4% 48.5% 6.9% 2.8% 1.8%
    Format : Matroska
    Format version : Version 4 / Version 2
    File size : 10.5 GiB
    Duration : 2h 2mn
    Overall bit rate : 12.4 Mbps
    Movie name : Лазурный берег. (Tonik)
    Encoded date : UTC 2016-06-12 08:32:46
    Writing application : mkvmerge v7.1.0 ('Good Love') 64bit built on Jul 27 2014 13:06:55
    Writing library : libebml v1.3.0 + libmatroska v1.4.1
    _STATISTICS_WRITING_APP : mkvmerge v7.1.0 ('Good Love') 64bit built on Jul 27 2014 13:06:55
    _STATISTICS_WRITING_DATE_UTC : 2016-06-12 08:32:46
    _STATISTICS_TAGS : BPS DURATION NUMBER_OF_FRAMES NUMBER_OF_BYTES
    DURATION : 01:57:10.231000000
    NUMBER_OF_FRAMES : 1063
    NUMBER_OF_BYTES : 24083
    Video
    ID : 1
    Format : AVC
    Format/Info : Advanced Video Codec
    Format profile : High@L4.1
    Format settings, CABAC : Yes
    Format settings, ReFrames : 5 frames
    Codec ID : V_MPEG4/ISO/AVC
    Duration : 2h 2mn
    Bit rate : 10.4 Mbps
    Width : 1 920 pixels
    Height : 800 pixels
    Display aspect ratio : 2.40:1
    Frame rate mode : Constant
    Frame rate : 23.976 fps
    Color space : YUV
    Chroma subsampling : 4:2:0
    Bit depth : 8 bits
    Scan type : Progressive
    Bits/(Pixel*Frame) : 0.282
    Stream size : 8.66 GiB (82%)
    Writing library : x264 core 148 r2694 3b70645
    Encoding settings : cabac=1 / ref=5 / deblock=1:-3:-3 / analyse=0x3:0x133 / me=umh / subme=11 / psy=1 / psy_rd=1.00:0.00 / mixed_ref=1 / me_range=48 / chroma_me=1 / trellis=2 / 8x8dct=1 / cqm=0 / deadzone=21,11 / fast_pskip=0 / chroma_qp_offset=-2 / threads=12 / lookahead_threads=2 / sliced_threads=0 / nr=0 / decimate=0 / interlaced=0 / bluray_compat=0 / constrained_intra=0 / bframes=8 / b_pyramid=2 / b_adapt=2 / b_bias=0 / direct=3 / weightb=1 / open_gop=0 / weightp=2 / keyint=240 / keyint_min=2 / scenecut=40 / intra_refresh=0 / rc=2pass / mbtree=0 / bitrate=10400 / ratetol=1.0 / qcomp=0.70 / qpmin=0 / qpmax=69 / qpstep=4 / cplxblur=20.0 / qblur=0.5 / ip_ratio=1.40 / pb_ratio=1.30 / aq=3:0.80
    Language : English
    Default : Yes
    Forced : No
    DURATION : 02:02:12.325000000
    NUMBER_OF_FRAMES : 175800
    NUMBER_OF_BYTES : 9525488897
    _STATISTICS_WRITING_APP : mkvmerge v7.1.0 ('Good Love') 64bit built on Jul 27 2014 13:06:55
    _STATISTICS_WRITING_DATE_UTC : 2016-06-12 08:32:46
    _STATISTICS_TAGS : BPS DURATION NUMBER_OF_FRAMES NUMBER_OF_BYTES
    Audio #1
    ID : 2
    Format : AC-3
    Format/Info : Audio Coding 3
    Mode extension : CM (complete main)
    Format settings, Endianness : Big
    Codec ID : A_AC3
    Duration : 2h 2mn
    Bit rate mode : Constant
    Bit rate : 448 Kbps
    Channel(s) : 6 channels
    Channel positions : Front: L C R, Side: L R, LFE
    Sampling rate : 48.0 KHz
    Bit depth : 16 bits
    Compression mode : Lossy
    Stream size : 392 MiB (4%)
    Language : Russian
    Default : Yes
    Forced : No
    Audio #2
    ID : 3
    Format : DTS
    Format/Info : Digital Theater Systems
    Mode : 16
    Format settings, Endianness : Big
    Codec ID : A_DTS
    Duration : 2h 2mn
    Bit rate mode : Constant
    Bit rate : 1 509 Kbps
    Channel(s) : 6 channels
    Channel positions : Front: L C R, Side: L R, LFE
    Sampling rate : 48.0 KHz
    Bit depth : 24 bits
    Compression mode : Lossy
    Stream size : 1.29 GiB (12%)
    Language : English
    Default : No
    Forced : No
    Text #1
    ID : 4
    Format : UTF-8
    Codec ID : S_TEXT/UTF8
    Codec ID/Info : UTF-8 Plain Text
    Title : Forced
    Language : Russian
    Default : Yes
    Forced : No
    Text #2
    ID : 5
    Format : UTF-8
    Codec ID : S_TEXT/UTF8
    Codec ID/Info : UTF-8 Plain Text
    Language : Russian
    Default : No
    Forced : No
    Text #3
    ID : 6
    Format : UTF-8
    Codec ID : S_TEXT/UTF8
    Codec ID/Info : UTF-8 Plain Text
    Title : forced
    Language : English
    Default : No
    Forced : No
    Text #4
    ID : 7
    Format : UTF-8
    Codec ID : S_TEXT/UTF8
    Codec ID/Info : UTF-8 Plain Text
    Title : full
    Language : English
    Default : No
    Forced : No
    Text #5
    ID : 8
    Format : UTF-8
    Codec ID : S_TEXT/UTF8
    Codec ID/Info : UTF-8 Plain Text
    Title : SDH
    Language : English
    Default : No
    Forced : No
    Menu
    00:00:00.000 : en:00:00:00.000
    00:05:50.225 : en:00:05:50.225
    00:13:54.125 : en:00:13:54.125
    00:21:39.048 : en:00:21:39.048
    00:26:29.505 : en:00:26:29.505
    00:32:46.590 : en:00:32:46.590
    00:38:29.682 : en:00:38:29.682
    00:44:47.685 : en:00:44:47.685
    00:50:43.999 : en:00:50:43.999
    00:57:10.469 : en:00:57:10.469
    01:03:00.402 : en:01:03:00.402
    01:06:42.415 : en:01:06:42.415
    01:11:42.381 : en:01:11:42.381
    01:17:12.545 : en:01:17:12.545
    01:24:36.863 : en:01:24:36.863
    01:30:59.913 : en:01:30:59.913
    01:36:52.473 : en:01:36:52.473
    01:46:12.408 : en:01:46:12.408
    01:53:27.342 : en:01:53:27.342
    01:58:08.290 : en:01:58:08.290

    Скриншоты

    Скачать .torrent

    Скачать торрент-файл бесплатно и на максимальной скорости!

    Как скачивать? · Что такое торрент? · Рейтинг и ограничения

    !ВНИМАНИЕ!
    Сайт не распространяет и не хранит электронные версии произведений, а занимается лишь лишь предоставлением доступа к создаваемому пользователями каталогу ссылок на торрент-файлы, которые содержат только списки хеш-сумм, убедительная просьба с жалобами обращаться напрямую к пользователю. Файлы для обмена на трекере предоставлены пользователями сайта, и администрация не несёт ответственности за их содержание. Просьба не заливать файлы, защищенные авторскими правами, а также файлы нелегального содержания!


    _________________
    [Профиль] [ЛС]
    Показать сообщения:    
    Ответить на тему

    Текущее время: Сегодня, в 20:25

    Часовой пояс: GMT + 2



    Вы не можете начинать темы
    Вы не можете отвечать на сообщения
    Вы не можете редактировать свои сообщения
    Вы не можете удалять свои сообщения
    Вы не можете голосовать в опросах
    Вы не можете прикреплять файлы к сообщениям
    Вы не можете скачивать файлы