BitTorrentTracker PerecTracker.org
BitTorrentTracker PerecTracker.org
    
Регистрация  ·  Вход
 
 · 
Забыли пароль?

  • Затмение / Regression (Алехандро Аменабар / Alejandro Amenábar) [2015, Испания, Канада, Триллер, драма, криминал, детектив, BDRip, HD (720p)] DUB + Original + sub (rus, eng)

    Ответить на тему
     
    Автор Сообщение

    rechyn

    Создавать темы 13-Июн-2016 16:23

           

    [Цитировать]

    Затмение / Regression
    «Страх всегда находит свою жертву»
    5.695 / 10 5.70 / 10
    -Год выпуска: 2015
    Страна: Испания, Канада
    Жанр: Триллер, драма, криминал, детектив
    Продолжительность: 01:46:00
    Перевод: Дублированный (iTunes)
    Оригинальная аудиодорожка: Есть
    Cубтитры: Русские, Английские
    Режиссёр: Алехандро Аменабар
    Сценарий: Алехандро Аменабар
    Продюсер: Алехандро Аменабар, Фернандо Бовайра, Кристина Пиовесан
    Оператор: Даниэль Араньо
    Композитор: Роке Баньос
    Художник: Кэрол Спайэр, Элинор Роуз Гэлбрейт, Соня Гранде
    Монтаж: Каролина Мартинез Урбина
    В ролях: Итан Хоук, Эмма Уотсон, Дэвид Тьюлис, Лотер Блюто, Дейл Дикки, Давид Денсик, Девон Бостик, Аарон Эшмор, Питер МакНейл, Адам Батчер
    Сборы в США: $55 039
    Сборы в мире: + $17 616 062 = $17 671 101
    Сборы в России: $238 017
    Мировая премьера: 18 сентября 2015
    Премьера (РФ): 4 февраля 2016, «Вольга»
    Описание: В ходе расследования дела Анджелы Грей детектив Брюс Киннер вынужден обратиться к психологу для выявления ее подавленных воспоминаний. Сеанс регрессивного гипноза открывает ужасающие факты — по ночам с согласия отца над девушкой проводились сатанинские ритуалы. Желая защитить девушку от преследования зловещего тайного общества, детектив оказывается втянут в пугающий мир оккультизма. То, что ему противостоит, находится за гранью понимания и способно бросить вызов его убеждениям и вере.-Качество исходника: Blu-Ray (BlueBird)
    Качество: BDRip
    Тип: HD (720p)
    Контейнер: M4V
    Видео: H.264, 1280x536, 2.40:1, 3 500 Kbps, 23.976 fps
    Аудио 1: Русский/Дублированный (iTunes), AAC / 2.0 / 157 Kbps / 48.0 KHz
    Аудио 2: Английский/Оригинальная дорожка , AAC / 2.0 / 157 Kbps / 48.0 KHz
    Аудио 3: Русский/Дублированный (iTunes), AC-3 / 5.1 / 384 Kbps / 48.0 KHz
    Аудио 4: Английский/Оригинальная дорожка , AC-3 / 5.1 / 640 Kbps / 48.0 KHz
    Субтитры 1: Русские полные
    Субтитры 2: Английские полные
    -

    iTunes Meta Tags

    Sort Name: Regression
    XID: Apple:vendor_id:2015-807650
    contentID: 1070203798
    Copyright: © 2015 Entertainment Film Distributors
    Screenwriters: Алехандро Аменабар
    Producers: Алехандро Аменабар, Фернандо Бовайра, Кристина Пиовесан
    Director: Алехандро Аменабар
    Cast: Эмма Уотсон, Итан Хоук, Дэвид Тьюлис, Девон Бостик, Аарон Эшмор, Дейл Дикки, Давид Денсик, Адам Батчер, Кристиан Бруун, Аарон Абрамс
    Studio: Entertainment Film Distributors
    Rating: 125
    Long Description: В ходе расследования дела Анджелы Грей детектив Брюс Киннер вынужден обратиться к психологу для выявления ее подавленных воспоминаний. Сеанс регрессивного гипноза открывает ужасающие факты - по ночам с согласия отца над девушкой проводились сатанинские ритуалы. Желая защитить девушку от преследования зловещего тайного общества, детектив оказывается втянут в пугающий мир оккультизма. То, что ему противостоит, находится за гранью понимания и способно бросить вызов его убеждениям и вере.
    Description: В ходе расследования дела Анджелы Грей детектив Брюс Киннер вынужден обратиться к психологу для выявления ее подавленных воспоминаний. Сеанс регрессивного гипноза открывает ужасающие факты - по ночам с согласия отца над девушкой проводились сатанинские ритуалы. Желая защитить девушку от преследования зловещего тайного общества, детектив оказывается втянут в пугающий мир оккультизма. То, что ему противостоит, находится за гранью понимания и способно бросить вызов его убеждениям и вере.
    Release Date: 2015-09-18T08:00:00Z
    Genre: Horror
    Artist: Alejandro Amenábar
    Name: Regression

    MediaInfo

    General
    Complete name : /Users/imac/HandBrake/Regression (720p HD).m4v
    Format : MPEG-4
    Codec ID : M4V
    File size : 3.59 GiB
    Duration : 1h 46mn
    Overall bit rate mode : Variable
    Overall bit rate : 4 843 Kbps
    Movie name : Regression
    Performer : Alejandro Amenábar
    Director : Алехандро Аменабар
    Actor : Эмма Уотсон / Итан Хоук / Дэвид Тьюлис / Девон Бостик / Аарон Эшмор / Дейл Дикки / Давид Денсик / Адам Батчер / Кристиан Бруун / Аарон Абрамс
    Screenplay by : Алехандро Аменабар
    Producer : Алехандро Аменабар / Фернандо Бовайра / Кристина Пиовесан
    Production studio : Entertainment Film Distributors
    Genre : Horror
    ContentType : Short Film
    Description : В ходе расследования дела Анджелы Грей детектив Брюс Киннер вынужден обратиться к психологу для выявления ее подавленных воспоминаний. Сеанс регрессивного гипноза открывает ужасающие факты - по ночам с согласия отца над девушкой проводились сатанинские ритуалы. Желая защитить девушку от преследования зловещего тайного общества, детектив оказывается втянут в пугающий мир оккультизма. То, что ему противостоит, находится за гранью понимания и способно бросить вызов его убеждениям и вере.
    Recorded date : UTC 2015-09-18 08:00:00
    Encoded date : UTC 2016-06-12 23:14:16
    Tagged date : UTC 2016-06-12 23:15:58
    Copyright : © 2015 Entertainment Film Distributors
    Cover : Yes
    Rating : None
    Title/Sort : Regression
    LongDescription : В ходе расследования дела Анджелы Грей детектив Брюс Киннер вынужден обратиться к психологу для выявления ее подавленных воспоминаний. Сеанс регрессивного гипноза открывает ужасающие факты - по ночам с согласия отца над девушкой проводились сатанинские ритуалы. Желая защитить девушку от преследования зловещего тайного общества, детектив оказывается втянут в пугающий мир оккультизма. То, что ему противостоит, находится за гранью понимания и способно бросить вызов его убеждениям и вере.
    HDVideo : Yes
    AppleStoreCatalogID : 1070203798
    Vendor : Apple:vendor_id:2015-807650
    ContentRating : uk-movie|15|350|
    Video #1
    ID : 1
    Format : AVC
    Format/Info : Advanced Video Codec
    Format profile : High@L3.1
    Format settings, CABAC : No
    Format settings, ReFrames : 3 frames
    Codec ID : avc1
    Codec ID/Info : Advanced Video Coding
    Duration : 1h 46mn
    Source duration : 1h 46mn
    Bit rate : 3 500 Kbps
    Width : 1 280 pixels
    Height : 536 pixels
    Display aspect ratio : 2.40:1
    Frame rate mode : Variable
    Frame rate : 23.976 fps
    Minimum frame rate : 23.810 fps
    Maximum frame rate : 24.272 fps
    Color space : YUV
    Chroma subsampling : 4:2:0
    Bit depth : 8 bits
    Scan type : Progressive
    Bits/(Pixel*Frame) : 0.213
    Stream size : 2.59 GiB (72%)
    Source stream size : 2.59 GiB (72%)
    Title : Main Program
    Writing library : x264 core 142 r2479 dd79a61
    Encoding settings : cabac=0 / ref=3 / deblock=1:-3:-3 / analyse=0x3:0x113 / me=umh / subme=9 / psy=1 / psy_rd=1.00:0.15 / mixed_ref=1 / me_range=32 / chroma_me=1 / trellis=0 / 8x8dct=1 / cqm=0 / deadzone=21,11 / fast_pskip=0 / chroma_qp_offset=-2 / threads=36 / lookahead_threads=3 / sliced_threads=0 / nr=0 / decimate=0 / interlaced=0 / bluray_compat=0 / constrained_intra=0 / bframes=3 / b_pyramid=0 / b_adapt=2 / b_bias=0 / direct=1 / weightb=0 / open_gop=0 / weightp=0 / keyint=240 / keyint_min=24 / scenecut=40 / intra_refresh=0 / rc_lookahead=40 / rc=2pass / mbtree=1 / bitrate=3500 / ratetol=1.0 / qcomp=0.65 / qpmin=0 / qpmax=69 / qpstep=4 / cplxblur=20.0 / qblur=0.5 / vbv_maxrate=9500 / vbv_bufsize=9500 / nal_hrd=none / filler=0 / ip_ratio=1.40 / aq=1:1.10
    Language : English
    Encoded date : UTC 2016-06-12 23:14:16
    Tagged date : UTC 2016-06-12 23:14:21
    Color range : Limited
    Color primaries : BT.709
    Transfer characteristics : BT.709
    Matrix coefficients : BT.709
    Video #2
    ID : 9
    Format : JPEG
    Codec ID : jpeg
    Duration : 1h 46mn
    Bit rate mode : Variable
    Bit rate : 691 bps
    Width : 640 pixels
    Height : 268 pixels
    Display aspect ratio : 2.40:1
    Frame rate mode : Variable
    Frame rate : 0.002 fps
    Minimum frame rate : 0.001 fps
    Maximum frame rate : 0.003 fps
    Color space : YUV
    Chroma subsampling : 4:2:0
    Bit depth : 8 bits
    Compression mode : Lossy
    Bits/(Pixel*Frame) : 2.014
    Stream size : 506 KiB (0%)
    Title : Chapter Images
    Language : English
    Encoded date : UTC 2016-06-12 23:14:58
    Tagged date : UTC 2016-06-12 23:14:58
    Audio #1
    ID : 2
    Format : AAC
    Format/Info : Advanced Audio Codec
    Format profile : LC
    Codec ID : 40
    Duration : 1h 46mn
    Bit rate mode : Variable
    Bit rate : 157 Kbps
    Maximum bit rate : 267 Kbps
    Channel(s) : 2 channels
    Channel positions : Front: L R
    Sampling rate : 48.0 KHz
    Compression mode : Lossy
    Stream size : 119 MiB (3%)
    Title : Russian Stereo
    Language : Russian
    Encoded date : UTC 2016-06-12 23:14:16
    Tagged date : UTC 2016-06-12 23:14:55
    Audio #2
    ID : 3
    Format : AAC
    Format/Info : Advanced Audio Codec
    Format profile : LC
    Codec ID : 40
    Duration : 1h 46mn
    Bit rate mode : Variable
    Bit rate : 157 Kbps
    Maximum bit rate : 244 Kbps
    Channel(s) : 2 channels
    Channel positions : Front: L R
    Sampling rate : 48.0 KHz
    Compression mode : Lossy
    Stream size : 119 MiB (3%)
    Title : English Stereo
    Language : English
    Encoded date : UTC 2016-06-12 23:14:16
    Tagged date : UTC 2016-06-12 23:14:55
    Audio #3
    ID : 4
    Format : AC-3
    Format/Info : Audio Coding 3
    Mode extension : CM (complete main)
    Format settings, Endianness : Big
    Codec ID : ac-3
    Duration : 1h 46mn
    Bit rate mode : Constant
    Bit rate : 384 Kbps
    Channel(s) : 6 channels
    Channel positions : Front: L C R, Side: L R, LFE
    Sampling rate : 48.0 KHz
    Bit depth : 16 bits
    Compression mode : Lossy
    Stream size : 291 MiB (8%)
    Title : Russian DD 5.1
    Language : Russian
    Encoded date : UTC 2016-06-12 23:14:16
    Tagged date : UTC 2016-06-12 23:14:55
    Audio #4
    ID : 5
    Format : AC-3
    Format/Info : Audio Coding 3
    Mode extension : CM (complete main)
    Format settings, Endianness : Big
    Codec ID : ac-3
    Duration : 1h 46mn
    Bit rate mode : Constant
    Bit rate : 640 Kbps
    Channel(s) : 6 channels
    Channel positions : Front: L C R, Side: L R, LFE
    Sampling rate : 48.0 KHz
    Bit depth : 16 bits
    Compression mode : Lossy
    Stream size : 486 MiB (13%)
    Title : English DD 5.1
    Language : English
    Encoded date : UTC 2016-06-12 23:14:16
    Tagged date : UTC 2016-06-12 23:14:55
    Text #1
    ID : 6
    Format : Timed Text
    Muxing mode : sbtl
    Codec ID : tx3g
    Duration : 1h 39mn
    Bit rate mode : Variable
    Bit rate : 104 bps
    Stream size : 76.1 KiB (0%)
    Title : Russian full
    Language : Russian
    Encoded date : UTC 2016-06-12 23:14:16
    Tagged date : UTC 2016-06-12 23:14:53
    Text #2
    ID : 7
    Format : Timed Text
    Muxing mode : sbtl
    Codec ID : tx3g
    Duration : 1h 39mn
    Bit rate mode : Variable
    Bit rate : 58 bps
    Stream size : 42.3 KiB (0%)
    Title : English full
    Language : English
    Encoded date : UTC 2016-06-12 23:14:16
    Tagged date : UTC 2016-06-12 23:14:53
    Menu #1
    00:00:00.000 : Chapter 1
    00:12:13.650 : Chapter 2
    00:19:55.611 : Chapter 3
    00:29:56.086 : Chapter 4
    00:39:52.307 : Chapter 5
    00:48:11.472 : Chapter 6
    00:57:51.843 : Chapter 7
    01:09:43.346 : Chapter 8
    01:16:53.025 : Chapter 9
    01:23:58.659 : Chapter 10
    01:30:01.062 : Chapter 11
    01:36:06.594 : Chapter 12
    Menu #2
    ID : 8
    Codec ID : text
    Duration : 1h 46mn
    Language : English
    Encoded date : UTC 2016-06-12 23:14:55
    Tagged date : UTC 2016-06-12 23:14:55
    00:00:00.000 : Chapter 1
    00:12:13.650 : Chapter 2
    00:19:55.611 : Chapter 3
    00:29:56.086 : Chapter 4
    00:39:52.307 : Chapter 5
    00:48:11.472 : Chapter 6
    00:57:51.843 : Chapter 7
    01:09:43.346 : Chapter 8
    01:16:53.025 : Chapter 9
    01:23:58.659 : Chapter 10
    01:30:01.062 : Chapter 11
    01:36:06.594 : Chapter 12
    Bit rate mode : VBR

    x264 лог

    x264 [info]: frame I:1065  Avg QP:12.35  size: 94676
    x264 [info]: frame P:54609 Avg QP:14.73  size: 32408
    x264 [info]: frame B:96913 Avg QP:15.50  size:  9395
    x264 [info]: consecutive B-frames:  5.5% 17.6% 35.8% 41.1%
    x264 [info]: mb I  I16..4:  8.8% 60.9% 30.3%
    x264 [info]: mb P  I16..4:  2.1%  8.0%  2.4%  P16..4: 39.6% 27.0% 11.2%  0.0%  0.0%    skip: 9.6%
    x264 [info]: mb B  I16..4:  0.3%  1.2%  0.3%  B16..8: 43.7% 14.4%  2.1%  direct: 5.7%  skip:32.4%  L0:42.6% L1:49.1% BI: 8.3%
    x264 [info]: 8x8 transform intra:64.3% inter:42.5%
    x264 [info]: coded y,uvDC,uvAC intra: 80.5% 78.5% 62.9% inter: 25.7% 26.7% 15.9%
    x264 [info]: i16 v,h,dc,p: 47% 12% 11% 29%
    x264 [info]: i8 v,h,dc,ddl,ddr,vr,hd,vl,hu: 13%  7% 14% 10% 12% 12% 11% 11% 10%
    x264 [info]: i4 v,h,dc,ddl,ddr,vr,hd,vl,hu: 14%  9%  8% 11% 15% 14% 12% 10%  8%
    x264 [info]: i8c dc,h,v,p: 58% 15% 19%  8%
    x264 [info]: ref P L0: 65.4% 19.6% 15.0%
    x264 [info]: ref B L0: 74.9% 25.1%
    x264 [info]: kb/s:3495.97

    Скриншоты

    -

    Релиз подготовлен для просмотра на Apple TV, iPad, iPhone, iPod Touch.
    Для просмотра данного релиза на компьютере с ОС Windows рекомендуется использовать VLC media player
    Скачать .torrent

    Скачать торрент-файл бесплатно и на максимальной скорости!

    Как скачивать? · Что такое торрент? · Рейтинг и ограничения

    !ВНИМАНИЕ!
    Сайт не распространяет и не хранит электронные версии произведений, а занимается лишь лишь предоставлением доступа к создаваемому пользователями каталогу ссылок на торрент-файлы, которые содержат только списки хеш-сумм, убедительная просьба с жалобами обращаться напрямую к пользователю. Файлы для обмена на трекере предоставлены пользователями сайта, и администрация не несёт ответственности за их содержание. Просьба не заливать файлы, защищенные авторскими правами, а также файлы нелегального содержания!


    _________________
    [Профиль] [ЛС]
    Показать сообщения:    
    Ответить на тему

    Текущее время: Сегодня, в 10:45

    Часовой пояс: GMT + 2



    Вы не можете начинать темы
    Вы не можете отвечать на сообщения
    Вы не можете редактировать свои сообщения
    Вы не можете удалять свои сообщения
    Вы не можете голосовать в опросах
    Вы не можете прикреплять файлы к сообщениям
    Вы не можете скачивать файлы