BitTorrentTracker PerecTracker.org
BitTorrentTracker PerecTracker.org
    
Регистрация  ·  Вход
 
 · 
Забыли пароль?

  • Конвой / Le convoi (Фредерик Шёндёрфер / Frédéric Schoendoerffer) [2016, Франция, триллер, криминал, BDRip] AVO (Карповский)

    Ответить на тему
     
    Автор Сообщение

    rechyn

    Создавать темы 13-Июн-2016 16:23

           

    [Цитировать]

    Конвой / Le convoi
    Страна: Франция
    Студия: Canal+ [fr], Carcharodon, CNC, Ciné, Cinéfrance 1888, D8, Indie Invest, Orange Studio, Rhône-Alpes Cinéma
    Жанр: Триллер, криминал
    Год выпуска: 2016
    Продолжительность: 01:42:30
    Перевод: Авторский (одноголосый закадровый) Антон Карповский
    Cубтитры: нет
    Оригинальная аудиодорожка: нет
    Режиссер: Фредерик Шёндёрфер / Frédéric Schoendoerffer
    В ролях: Бенуа Мажимель, Рем Кериси, Тауфик Жаллаб, Мэхди Белемлих, Эмир Эль Касим, Леон Гарель, Софтан Каммес, Фэд Амара, Ален Фиглаж, Карин Мартан-Превель, Фэнни Гюдеко, Ясин Бен Моусса, Оливье Одибер
    Описание: Фильм о страстях тех, кто вынужден рисковать, об исламской семье, где идут за старшим братом и мечтают о роскошной жизни, прозябая в нищете. Этих людей несёт ветер криминального азарта, он подгоняет их роскошные машины, полные наркотиков, по автострадам через блокпосты и засады. Весь фильм проходит в движении машин. Кто-то едет спереди, чтобы проведать обстановку, кто-то везет основной груз, сзади страхует Алекс, - прожженый профессионал, который хладнокровно подчищает грязную работу своих не слишком ловких друзей.
    Дополнительная информация:
    Автор релиза - ylnian
    Заказ перевода у Антона Карповского (июнь 2016) - ylnian
    За сборку дороги спасибо rammzez
    Источник для рипа - Blu-Ray (FRA) - Le.Convoi.2016.FRENCH.BluRay.AVC.Remux.DTS-HD.MA-KLI
    Описание - из рецензии Антона Карповского


    Сэмпл: https://yadi.sk/i/XSjV_6vLsNaeB
    Качество видео: BDRip
    Формат видео: AVI
    Видео: XviD, 720x304 (2,35:1), 24.000 fps, 1580 kbps, 0.301 bit/pixel
    Аудио: Русский AC3, 48000 Гц, 6ch, 448 kbps

    MediaInfo

    Общее
    Полное имя : B:\Le.convoi.2016.BDRip-ylnian.avi
    Формат : AVI
    Формат/Информация : Audio Video Interleave
    Размер файла : 1,46 Гбайт
    Продолжительность : 1 ч. 42 м.
    Общий поток : 2038 Кбит/сек
    Программа кодирования : VirtualDubMod 1.5.10.2 (build 2540/release)
    Библиотека кодирования : VirtualDubMod build 2540/release
    Видео
    Идентификатор : 0
    Формат : MPEG-4 Visual
    Профиль формата : Advanced Simple@L5
    Параметр BVOP формата : 1
    Параметр QPel формата : Нет
    Параметр GMC формата : Без точки перехода
    Параметр матрицы формата : Default (MPEG)
    Идентификатор кодека : XVID
    Идентификатор кодека/Подсказка : XviD
    Продолжительность : 1 ч. 42 м.
    Битрейт : 1580 Кбит/сек
    Ширина : 720 пикселей
    Высота : 304 пикселя
    Соотношение сторон : 2,35:1
    Частота кадров : 24,000 кадра/сек
    Цветовое пространство : YUV
    Субдискретизация насыщенности : 4:2:0
    Битовая глубина : 8 бит
    Тип развёртки : Прогрессивная
    Метод сжатия : С потерями
    Бит/(Пиксели*Кадры) : 0.301
    Размер потока : 1,13 Гбайт (78%)
    Библиотека кодирования : XviD 67
    Аудио
    Идентификатор : 1
    Формат : AC-3
    Формат/Информация : Audio Coding 3
    Расширение режима : CM (complete main)
    Параметр Endianness формата : Big
    Идентификатор кодека : 2000
    Продолжительность : 1 ч. 42 м.
    Вид битрейта : Постоянный
    Битрейт : 448 Кбит/сек
    Каналы : 6 каналов
    Расположение каналов : Front: L C R, Side: L R, LFE
    Частота : 48,0 КГц
    Частота кадров : 31,250 кадров/сек (1536 spf)
    Метод сжатия : С потерями
    Размер потока : 328 Мбайт (22%)
    Выравнивание : Разделение по промежуткам
    Продолжительность промежутка : 42 мс. (1,00 видеокадр)
    Время предзагрузки промежутка : 500 мс.

    Скриншот c названием фильма

    Скриншоты

    Скачать .torrent

    Скачать торрент-файл бесплатно и на максимальной скорости!

    Как скачивать? · Что такое торрент? · Рейтинг и ограничения

    !ВНИМАНИЕ!
    Сайт не распространяет и не хранит электронные версии произведений, а занимается лишь лишь предоставлением доступа к создаваемому пользователями каталогу ссылок на торрент-файлы, которые содержат только списки хеш-сумм, убедительная просьба с жалобами обращаться напрямую к пользователю. Файлы для обмена на трекере предоставлены пользователями сайта, и администрация не несёт ответственности за их содержание. Просьба не заливать файлы, защищенные авторскими правами, а также файлы нелегального содержания!


    _________________
    [Профиль] [ЛС]
    Показать сообщения:    
    Ответить на тему

    Текущее время: Сегодня, в 22:05

    Часовой пояс: GMT + 2



    Вы не можете начинать темы
    Вы не можете отвечать на сообщения
    Вы не можете редактировать свои сообщения
    Вы не можете удалять свои сообщения
    Вы не можете голосовать в опросах
    Вы не можете прикреплять файлы к сообщениям
    Вы не можете скачивать файлы