BitTorrentTracker PerecTracker.org
BitTorrentTracker PerecTracker.org
    
Регистрация  ·  Вход
 
 · 
Забыли пароль?

  • Мой папа / Mio papà / My Dad (Джулио Базе / Giulio Base) [2014, Италия, драма, DVDRip] VO + Sub Rus + Original Ita

    Ответить на тему
     
    Автор Сообщение

    Light

    Создавать темы 13-Июн-2016 16:23

           

    [Цитировать]

    Мой папа / Mio papà / My Dad
    Страна: Италия
    Жанр: драма
    Год выпуска: 2014
    Продолжительность: 01:29:11
    Перевод: Одноголосый закадровый
    Cубтитры: русские, итальянские
    Оригинальная аудиодорожка: итальянский
    Режиссер: Джулио Базе / Giulio Base
    В ролях: Никколо Кальванья / Niccolò Calvagna, Валерио Базе / Valerio Base, Донателла Финокьяро / Donatella Finocchiaro, Нинетто Даволи / Ninetto Davoli, Джорджо Пазотти / Giorgio Pasotti, Фабио Тройяно / Fabio Troiano, Эмануэла Росси / Emanuela Rossi и др.
    Описание: Тридцатипятилетний Лоренцо работает водолазом на одной из нефтяных платформ в Средиземном море и высоко ценит личную свободу. Но встреча с Клаудией заставила его пересмотреть свои взгляды, он стал все чаще появляться у своей новой знакомой, где однажды повстречал ее шестилетнего сына Мэтью. Первая встреча не доставила особой радости обоим, но уже в следующий приезд Лоренцо на материк Мэтью спокойно отреагировал на его появление. В конце концов, Клаудиа, которой на несколько дней нужно уехать за границу, просит Лоренцо присмотреть за сыном.
    Сэмпл: http://multi-up.com/1105273
    Качество видео: DVDRip
    Формат видео: AVI
    Видео: MPEG-4 Visual at 1885 Кбит/сек : 720 x 304 (2.368) at 25.000 fps
    Аудио 1: AC-3 at 224 Кбит/сек : 2 канала, 48,0 КГц Language : (Русский)
    Аудио 2: AC-3 at 448 Кбит/сек : 6 каналов, 48,0 КГц (Итальянский)
    Формат субтитров: softsub (SRT)
    Доп. информация о субтитрах: Русские внешние (r123), итальянские

    MediaInfo

    Общее
    Полное имя : F:\С моей озвучкой\Мой папа\Mio papà.avi
    Формат : AVI
    Формат/Информация : Audio Video Interleave
    Размер файла : 1,60 Гбайт
    Продолжительность : 1 ч. 29 м.
    Общий поток : 2572 Кбит/сек
    Программа кодирования : VirtualDubModRus 1.5.10.2 (build 2542/release)
    Библиотека кодирования : VirtualDubMod build 2542/release
    Видео
    Идентификатор : 0
    Формат : MPEG-4 Visual
    Профиль формата : Advanced Simple@L5
    Параметр BVOP формата : Нет
    Параметр QPel формата : Нет
    Параметр GMC формата : Без точки перехода
    Параметр матрицы формата : Выборочная
    Идентификатор кодека : XVID
    Идентификатор кодека/Подсказка : XviD
    Продолжительность : 1 ч. 29 м.
    Битрейт : 1885 Кбит/сек
    Ширина : 720 пикселей
    Высота : 304 пикселя
    Соотношение сторон : 2,35:1
    Частота кадров : 25,000 кадров/сек
    Цветовое пространство : YUV
    Субдискретизация насыщенности : 4:2:0
    Битовая глубина : 8 бит
    Тип развёртки : Прогрессивная
    Метод сжатия : С потерями
    Бит/(Пиксели*Кадры) : 0.345
    Размер потока : 1,17 Гбайт (73%)
    Библиотека кодирования : XviD 64
    Аудио #1
    Идентификатор : 1
    Формат : AC-3
    Формат/Информация : Audio Coding 3
    Расширение режима : CM (complete main)
    Параметр Endianness формата : Big
    Идентификатор кодека : 2000
    Продолжительность : 1 ч. 29 м.
    Вид битрейта : Постоянный
    Битрейт : 224 Кбит/сек
    Каналы : 2 канала
    Расположение каналов : Front: L R
    Частота : 48,0 КГц
    Битовая глубина : 16 бит
    Метод сжатия : С потерями
    Размер потока : 143 Мбайт (9%)
    Выравнивание : Разделение по промежуткам
    Продолжительность промежутка : 40 мс. (1,00 видеокадр)
    Время предзагрузки промежутка : 500 мс.
    Язык : Italiano
    Аудио #2
    Идентификатор : 2
    Формат : AC-3
    Формат/Информация : Audio Coding 3
    Расширение режима : CM (complete main)
    Параметр Endianness формата : Big
    Идентификатор кодека : 2000
    Продолжительность : 1 ч. 29 м.
    Вид битрейта : Постоянный
    Битрейт : 448 Кбит/сек
    Каналы : 6 каналов
    Расположение каналов : Front: L C R, Side: L R, LFE
    Частота : 48,0 КГц
    Битовая глубина : 16 бит
    Метод сжатия : С потерями
    Размер потока : 286 Мбайт (17%)
    Выравнивание : Разделение по промежуткам
    Продолжительность промежутка : 40 мс. (1,00 видеокадр)
    Время предзагрузки промежутка : 500 мс.

    Скриншоты

    Скачать .torrent

    Скачать торрент-файл бесплатно и на максимальной скорости!

    Как скачивать? · Что такое торрент? · Рейтинг и ограничения

    !ВНИМАНИЕ!
    Сайт не распространяет и не хранит электронные версии произведений, а занимается лишь лишь предоставлением доступа к создаваемому пользователями каталогу ссылок на торрент-файлы, которые содержат только списки хеш-сумм, убедительная просьба с жалобами обращаться напрямую к пользователю. Файлы для обмена на трекере предоставлены пользователями сайта, и администрация не несёт ответственности за их содержание. Просьба не заливать файлы, защищенные авторскими правами, а также файлы нелегального содержания!


    _________________
    [Профиль] [ЛС]
    Показать сообщения:    
    Ответить на тему

    Текущее время: Сегодня, в 01:21

    Часовой пояс: GMT + 2



    Вы не можете начинать темы
    Вы не можете отвечать на сообщения
    Вы не можете редактировать свои сообщения
    Вы не можете удалять свои сообщения
    Вы не можете голосовать в опросах
    Вы не можете прикреплять файлы к сообщениям
    Вы не можете скачивать файлы