BitTorrentTracker PerecTracker.org
BitTorrentTracker PerecTracker.org
    
Регистрация  ·  Вход
 
 · 
Забыли пароль?

  • Он никогда не умирал / He Never Died (Джейсон Кравчик / Jason Krawczyk) [2015, США, Канада, триллер, драма, HDRip] MVO (Paradox" & "Recent Films) + DVO (Мтрск & StacyLagler) + Sub Rus, Eng + Original Eng

    Ответить на тему
     
    Автор Сообщение

    Light

    Создавать темы 13-Июн-2016 16:23

           

    [Цитировать]

    Он никогда не умирал / He Never Died
    Страна: США, Канада
    Жанр: триллер, драма
    Год выпуска: 2015
    Продолжительность: 01:37:17
    Перевод: Любительский (многоголосый закадровый) - Paradox" & "Recent Films
    Перевод: Любительский (двухголосый закадровый) - Мтрск & StacyLagler
    Cубтитры: русские (Сергей Гуреев), английские (полные, SDH)
    Оригинальная аудиодорожка: английский

    Режиссер: Джейсон Кравчик / Jason Krawczyk
    В ролях: Генри Роллинз, Бу Бу Стюарт, Кейт Гринхаус, Джордан Тодоси, Дэвид Ричмонд-Пек, Джеймс Кейд, Стивен Огг, Скотт Эджкомб, Роберт Томас, Элиас Эдраки
    Описание: Джек питается кровью не из-за своих кулинарных пристрастий: она помогает ему продлить существование. Джек живёт очень долго... очень долго. Но у долгой жизни есть свои неприятные стороны и моменты: главным недостатком Джек считает скуку - в скольких лотереях он поучаствовал, как он взрывал свой организм адреналином, сколько он телешоу пересмотрел, но ему от этого ещё скучнее. Всё чаще и чаще Джек задаётся вопросом: а стоит ли жить для того, чтобы скучать? Но вскоре ему скучать не придётся, ведь он столкнётся с целым ворохом проблем, которые свалятся на него после того, как он повстречает девушку по имени Андреа. Она утверждает, что Джек - её отец.
    Качество видео: HDRip
    Формат видео: AVI
    Видео: 720x304 (2.37:1), 23.976 fps, XviD MPEG-4 ~2002 kbps avg, 0.38 bit/pixel
    Аудио: 48 kHz, AC3 Dolby Digital, 3/2 (L,C,R,l,r) + LFE ch, ~448 kbps - многоголосый
    Аудио: 48 kHz, AC3 Dolby Digital, 2/0 (L,R) ch, ~192 kbps - двухголосый
    Аудио: 48 kHz, AC3 Dolby Digital, 3/2 (L,C,R,l,r) + LFE ch, ~448 kbps - оригинал

    MediaInfo

    Общее
    Полное имя : H:\He.Never.Died.2015.hdrip_[2.18]_[teko]\He.Never.Died.2015.hdrip_[2.18].avi
    Формат : AVI
    Формат/Информация : Audio Video Interleave
    Профиль формата : OpenDML
    Размер файла : 2,11 Гбайт
    Продолжительность : 1 ч. 37 м.
    Общий поток : 3098 Кбит/сек
    Программа кодирования : VirtualDubMod 1.5.10.3 | www.virtualdub-fr.org || (build 2550/release)
    Библиотека кодирования : VirtualDubMod build 2550/release
    Видео
    Идентификатор : 0
    Формат : MPEG-4 Visual
    Профиль формата : Advanced Simple@L5
    Параметр BVOP формата : 2
    Параметр QPel формата : Нет
    Параметр GMC формата : Без точки перехода
    Параметр матрицы формата : Выборочная
    Идентификатор кодека : XVID
    Идентификатор кодека/Подсказка : XviD
    Продолжительность : 1 ч. 37 м.
    Битрейт : 1985 Кбит/сек
    Ширина : 720 пикселей
    Высота : 304 пикселя
    Соотношение сторон : 2,35:1
    Частота кадров : 23,976 кадра/сек
    Цветовое пространство : YUV
    Субдискретизация насыщенности : 4:2:0
    Битовая глубина : 8 бит
    Тип развёртки : Прогрессивная
    Метод сжатия : С потерями
    Бит/(Пиксели*Кадры) : 0.378
    Размер потока : 1,35 Гбайт (64%)
    Библиотека кодирования : XviD 73
    Аудио #1
    Идентификатор : 1
    Формат : AC-3
    Формат/Информация : Audio Coding 3
    Расширение режима : CM (complete main)
    Параметр Endianness формата : Big
    Идентификатор кодека : 2000
    Продолжительность : 1 ч. 37 м.
    Вид битрейта : Постоянный
    Битрейт : 448 Кбит/сек
    Каналы : 6 каналов
    Расположение каналов : Front: L C R, Side: L R, LFE
    Частота : 48,0 КГц
    Битовая глубина : 16 бит
    Метод сжатия : С потерями
    Размер потока : 312 Мбайт (14%)
    Выравнивание : Разделение по промежуткам
    Продолжительность промежутка : 42 мс. (1,00 видеокадр)
    Время предзагрузки промежутка : 500 мс.
    Аудио #2
    Идентификатор : 2
    Формат : AC-3
    Формат/Информация : Audio Coding 3
    Расширение режима : CM (complete main)
    Параметр Endianness формата : Big
    Идентификатор кодека : 2000
    Продолжительность : 1 ч. 37 м.
    Вид битрейта : Постоянный
    Битрейт : 192 Кбит/сек
    Каналы : 2 канала
    Расположение каналов : Front: L R
    Частота : 48,0 КГц
    Битовая глубина : 16 бит
    Метод сжатия : С потерями
    Размер потока : 134 Мбайт (6%)
    Выравнивание : Разделение по промежуткам
    Продолжительность промежутка : 42 мс. (1,00 видеокадр)
    Время предзагрузки промежутка : 500 мс.
    Аудио #3
    Идентификатор : 3
    Формат : AC-3
    Формат/Информация : Audio Coding 3
    Расширение режима : CM (complete main)
    Параметр Endianness формата : Big
    Идентификатор кодека : 2000
    Продолжительность : 1 ч. 37 м.
    Вид битрейта : Постоянный
    Битрейт : 448 Кбит/сек
    Каналы : 6 каналов
    Расположение каналов : Front: L C R, Side: L R, LFE
    Частота : 48,0 КГц
    Битовая глубина : 16 бит
    Метод сжатия : С потерями
    Размер потока : 312 Мбайт (14%)
    Выравнивание : Разделение по промежуткам
    Продолжительность промежутка : 42 мс. (1,00 видеокадр)
    Время предзагрузки промежутка : 500 мс.

    Скриншоты

    Релиз группы:

    -
    -
    Скачать .torrent

    Скачать торрент-файл бесплатно и на максимальной скорости!

    Как скачивать? · Что такое торрент? · Рейтинг и ограничения

    !ВНИМАНИЕ!
    Сайт не распространяет и не хранит электронные версии произведений, а занимается лишь лишь предоставлением доступа к создаваемому пользователями каталогу ссылок на торрент-файлы, которые содержат только списки хеш-сумм, убедительная просьба с жалобами обращаться напрямую к пользователю. Файлы для обмена на трекере предоставлены пользователями сайта, и администрация не несёт ответственности за их содержание. Просьба не заливать файлы, защищенные авторскими правами, а также файлы нелегального содержания!


    _________________
    [Профиль] [ЛС]
    Показать сообщения:    
    Ответить на тему

    Текущее время: Сегодня, в 21:32

    Часовой пояс: GMT + 2



    Вы не можете начинать темы
    Вы не можете отвечать на сообщения
    Вы не можете редактировать свои сообщения
    Вы не можете удалять свои сообщения
    Вы не можете голосовать в опросах
    Вы не можете прикреплять файлы к сообщениям
    Вы не можете скачивать файлы