BitTorrentTracker PerecTracker.org
BitTorrentTracker PerecTracker.org
    
Регистрация  ·  Вход
 
 · 
Забыли пароль?

  • Страдающий бессонницей / The Insomniac (Монти Миранда / Monty Miranda) [2013, США / Animor Studios, Welcome Home Production, триллер, драма, криминал, детектив, WEB-DLRip] MVO (официальный звук)

    Ответить на тему
     
    Автор Сообщение

    Light

    Создавать темы 13-Июн-2016 04:08

           

    [Цитировать]

    Страдающий бессонницей / The Insomniac
    Страна: США / Animor Studios, Welcome Home Production
    Жанр: триллер, драма, криминал, детектив
    Год выпуска: 2013
    Продолжительность: 01:34:12
    Перевод: Профессиональный (многоголосый закадровый) официальный звук
    Cубтитры: нет
    Режиссер: Монти Миранда / Monty Miranda
    В ролях: Эдди Саласар, Клэр Грант, Дэнни Трехо, Джон Хёрд, Кит Шарабайка, Бретт ДельБуоно, Спенсер Бергер, Алими Баллард, Стэн Хэррингтон, Данте Суэйн
    Описание:
    После того как кто-то врывается в дом Джона Фигга и забирает всего его материалы и различные вещи, у него развивается сильная бессонница…
    Сэмпл: http://sendfile.su/1241881
    Качество видео: WEB-DLRip
    Формат видео: AVI
    Видео: Xvid 720x304 25fps [Video]
    Аудио: Dolby AC3 48000Hz stereo 192kbps [Audio]

    MediaInfo

    General
    Complete name : E:\Zona Downloads\The.Insomniac.2013.XviD..avi
    Format : AVI
    Format/Info : Audio Video Interleave
    File size : 1.46 GiB
    Duration : 1h 34mn
    Overall bit rate : 2 219 Kbps
    Video
    ID : 0
    Format : MPEG-4 Visual
    Format profile : Advanced Simple@L5
    Format settings, BVOP : 1
    Format settings, QPel : No
    Format settings, GMC : No warppoints
    Format settings, Matrix : Custom
    Codec ID : XVID
    Codec ID/Hint : XviD
    Duration : 1h 34mn
    Bit rate : 2 019 Kbps
    Width : 720 pixels
    Height : 304 pixels
    Display aspect ratio : 2.35:1
    Frame rate : 25.000 fps
    Color space : YUV
    Chroma subsampling : 4:2:0
    Bit depth : 8 bits
    Scan type : Progressive
    Compression mode : Lossy
    Bits/(Pixel*Frame) : 0.369
    Stream size : 1.33 GiB (91%)
    Writing library : XviD 73
    Audio
    ID : 1
    Format : AC-3
    Format/Info : Audio Coding 3
    Mode extension : CM (complete main)
    Format settings, Endianness : Big
    Codec ID : 2000
    Duration : 1h 34mn
    Bit rate mode : Constant
    Bit rate : 192 Kbps
    Channel(s) : 2 channels
    Channel positions : Front: L R
    Sampling rate : 48.0 KHz
    Bit depth : 16 bits
    Compression mode : Lossy
    Stream size : 129 MiB (9%)
    Alignment : Aligned on interleaves
    Interleave, duration : 64 ms (1.60 video frames)
    Interleave, preload duration : 192 ms
    Title : P

    Скриншот c названием фильма

    Скриншоты

    Скачать .torrent

    Скачать торрент-файл бесплатно и на максимальной скорости!

    Как скачивать? · Что такое торрент? · Рейтинг и ограничения

    !ВНИМАНИЕ!
    Сайт не распространяет и не хранит электронные версии произведений, а занимается лишь лишь предоставлением доступа к создаваемому пользователями каталогу ссылок на торрент-файлы, которые содержат только списки хеш-сумм, убедительная просьба с жалобами обращаться напрямую к пользователю. Файлы для обмена на трекере предоставлены пользователями сайта, и администрация не несёт ответственности за их содержание. Просьба не заливать файлы, защищенные авторскими правами, а также файлы нелегального содержания!


    _________________
    [Профиль] [ЛС]
    Показать сообщения:    
    Ответить на тему

    Текущее время: Сегодня, в 20:46

    Часовой пояс: GMT + 2



    Вы не можете начинать темы
    Вы не можете отвечать на сообщения
    Вы не можете редактировать свои сообщения
    Вы не можете удалять свои сообщения
    Вы не можете голосовать в опросах
    Вы не можете прикреплять файлы к сообщениям
    Вы не можете скачивать файлы