Register  ·  Log in
Forgot password?

  • Страдающий бессонницей / The Insomniac (Монти Миранда / Monty Miranda) [2013, США / Animor Studios, Welcome Home Production, триллер, драма, криминал, детектив, WEB-DLRip] MVO (официальный звук)

    Reply to topic
    Author Message


    Post 13-Jun-2016 05:08



    Страдающий бессонницей / The Insomniac
    Страна: США / Animor Studios, Welcome Home Production
    Жанр: триллер, драма, криминал, детектив
    Год выпуска: 2013
    Продолжительность: 01:34:12
    Перевод: Профессиональный (многоголосый закадровый) официальный звук
    Cубтитры: нет
    Режиссер: Монти Миранда / Monty Miranda
    В ролях: Эдди Саласар, Клэр Грант, Дэнни Трехо, Джон Хёрд, Кит Шарабайка, Бретт ДельБуоно, Спенсер Бергер, Алими Баллард, Стэн Хэррингтон, Данте Суэйн
    После того как кто-то врывается в дом Джона Фигга и забирает всего его материалы и различные вещи, у него развивается сильная бессонница…
    Качество видео: WEB-DLRip
    Формат видео: AVI
    Видео: Xvid 720x304 25fps [Video]
    Аудио: Dolby AC3 48000Hz stereo 192kbps [Audio]


    Complete name : E:\Zona Downloads\The.Insomniac.2013.XviD..avi
    Format : AVI
    Format/Info : Audio Video Interleave
    File size : 1.46 GiB
    Duration : 1h 34mn
    Overall bit rate : 2 219 Kbps
    ID : 0
    Format : MPEG-4 Visual
    Format profile : Advanced Simple@L5
    Format settings, BVOP : 1
    Format settings, QPel : No
    Format settings, GMC : No warppoints
    Format settings, Matrix : Custom
    Codec ID : XVID
    Codec ID/Hint : XviD
    Duration : 1h 34mn
    Bit rate : 2 019 Kbps
    Width : 720 pixels
    Height : 304 pixels
    Display aspect ratio : 2.35:1
    Frame rate : 25.000 fps
    Color space : YUV
    Chroma subsampling : 4:2:0
    Bit depth : 8 bits
    Scan type : Progressive
    Compression mode : Lossy
    Bits/(Pixel*Frame) : 0.369
    Stream size : 1.33 GiB (91%)
    Writing library : XviD 73
    ID : 1
    Format : AC-3
    Format/Info : Audio Coding 3
    Mode extension : CM (complete main)
    Format settings, Endianness : Big
    Codec ID : 2000
    Duration : 1h 34mn
    Bit rate mode : Constant
    Bit rate : 192 Kbps
    Channel(s) : 2 channels
    Channel positions : Front: L R
    Sampling rate : 48.0 KHz
    Bit depth : 16 bits
    Compression mode : Lossy
    Stream size : 129 MiB (9%)
    Alignment : Aligned on interleaves
    Interleave, duration : 64 ms (1.60 video frames)
    Interleave, preload duration : 192 ms
    Title : P

    Скриншот c названием фильма


    Download .torrent

    Download free and at maximum speed!

    How to Download? · What is a torrent? · Ratings and Limitations

    The site does not extend and does not store electronic(digital) versions of products, and only gives access to a reference catalogue created by users on torrent-files which contain only lists of the hash-sums, the earnest entreaty, with complaints(abuse) to access directly to the user. Files for an exchange on tracker are given by users of a site, and the administration does not bear the responsibility for their maintenance. The request to not fill in the files protected by copyrights, and also files of the illegal maintenance!

    [Profile] [PM]
    Display posts from previous:    
    Reply to topic

    The time now is: Today 12:06

    All times are GMT + 3 Hours

    You cannot post new topics in this forum
    You cannot reply to topics in this forum
    You cannot edit your posts in this forum
    You cannot delete your posts in this forum
    You cannot vote in polls in this forum
    You cannot attach files in this forum
    You cannot download files in this forum