BitTorrentTracker PerecTracker.org
BitTorrentTracker PerecTracker.org
    
Регистрация  ·  Вход
 
 · 
Забыли пароль?

  • Экипаж (Николай Лебедев) [2016, мелодрама, катастрофа, BDRip]

    Ответить на тему
     
    Автор Сообщение

    Flirldrerve

    Создавать темы 13-Июн-2016 00:01

           

    [Цитировать]

    Экипаж
    Жанр: Мелодрама, катастрофа
    Год выпуска: 2016
    Продолжительность: 02:17:12
    Режиссёр: Николай Лебедев
    В ролях: Данила Козловский, Владимир Машков, Агне Грудите, Катерина Шпица, Сергей Газаров, Елена Яковлева, Сергей Шакуров, Вера Иванова, Татьяна Новик, Сергей Кемпо, Алёна Бабенко, Сергей Романович, и др.
    Описание: Молодой и талантливый лётчик Алексей Гущин из-за своего неуступчивого характера не смог удержаться ни в военной, ни в грузовой авиации. Начальство не желает видеть в своих рядах подчинённого, который готов оспаривать приказы, даже если те действительно абсурдны. Наконец, при помощи отца он устраивается на работу в пассажирскую авиакомпанию в экипаж строгого Леонида Зинченко, профессионала, чья дисциплина и неукоснительное следование правилам стали уже легендарными. Роль второго пилота не очень нравится своенравному Гущину, у которого на всё своё мнение, но, тем не менее, пилоты уживаются и начинают спокойно работать.
    Всё было нормально до случая со скандалом на борту, когда Алексей усмирил зарвавшегося VIP-пассажира. Тот оказывается одним из совладельцев компании, и лётчик попадает в опалу. Вместо увольнения, которого удалось избежать по просьбе Зинченко, экипаж отправляют далеко от престижных маршрутов. Их новая задача – возить пассажиров между архипелагами в Тихом океане, где ведутся большие горнопромышленные работы. В один из дней рутинные перелёты прерваны экстренным вызовом – на одном из островов началось сильнейшее извержение вулкана. Чтобы спасти людей от раскалённой лавы, у наших лётчиков есть всего один шанс. Теперь нужно забыть о былых разногласиях, собраться и выполнить всё от них зависящее на пределе своих возможностей.

    Качество видео: BDRip
    Формат видео: AVI
    Видео: XviD 67 MPEG-4, 720x304 (2.35:1) 23.976 fps, ~1839 kbps avg, 0.350 bit/pixel
    Аудио: AC-3 Dolby Digital, CBR 448 kbps 6 ch (Front: L C R, Side: L R, LFE) 48.0 KHz

    MediaInfo

    ОбщееПолное имя : V:\Экипаж_2016_BDRip_[perectracker.org].aviФормат : AVIФормат/Информация : Audio Video InterleaveПрофиль формата : OpenDMLРазмер файла : 2,20 ГбайтПродолжительность : 2 ч. 17 м.Общий поток : 2298 Кбит/секНазвание фильма : Экипаж_2016_BDRip_[perectracker.org]Режиссёр : OGORODNIKOFFFЖанр : Мелодрама, катастрофаПрограмма кодирования : VirtualDubModRus 1.5.10.2 (build 2542/release)Формат оригинала/Имя : Наше киноПравообладатель : [url=profile.php?mode=viewprofile&u=38116300]http://perectracker.org/profile.php?mode=viewprofil...[/url]Примечание : Рип подготовлен 12 июня 2016 года
    ВидеоИдентификатор : 0Формат : MPEG-4 VisualПрофиль формата : Advanced Simple@L5Параметр BVOP формата : 1Параметр QPel формата : НетПараметр GMC формата : Без точки переходаПараметр матрицы формата : ВыборочнаяИдентификатор кодека : DX50Идентификатор кодека/Подсказка : DivX 5Продолжительность : 2 ч. 17 м.Битрейт : 1839 Кбит/секШирина : 720 пикселейВысота : 304 пикселяСоотношение сторон : 2,35:1Частота кадров : 23,976 кадра/секЦветовое пространство : YUVСубдискретизация насыщенности : 4:2:0Битовая глубина : 8 битТип развёртки : ПрогрессивнаяМетод сжатия : С потерямиБит/(Пиксели*Кадры) : 0.350Размер потока : 1,76 Гбайт (80%)Библиотека кодирования : XviD 67
    АудиоИдентификатор : 1Формат : AC-3Формат/Информация : Audio Coding 3Расширение режима : CM (complete main)Параметр Endianness формата : BigИдентификатор кодека : 2000Продолжительность : 2 ч. 17 м.Вид битрейта : ПостоянныйБитрейт : 448 Кбит/секКаналы : 6 каналовРасположение каналов : Front: L C R, Side: L R, LFEЧастота : 48,0 КГцБитовая глубина : 16 битМетод сжатия : С потерямиЗадержка видео : 88 мс.Размер потока : 440 Мбайт (19%)Выравнивание : Разделение по промежуткамПродолжительность промежутка : 42 мс. (1,00 видеокадр)Время предзагрузки промежутка : 500 мс.

    Скриншот c названием фильма

    Скриншоты

    Время раздачи - по возможности.
    Скачать .torrent

    Скачать торрент-файл бесплатно и на максимальной скорости!

    Как скачивать? · Что такое торрент? · Рейтинг и ограничения

    !ВНИМАНИЕ!
    Сайт не распространяет и не хранит электронные версии произведений, а занимается лишь лишь предоставлением доступа к создаваемому пользователями каталогу ссылок на торрент-файлы, которые содержат только списки хеш-сумм, убедительная просьба с жалобами обращаться напрямую к пользователю. Файлы для обмена на трекере предоставлены пользователями сайта, и администрация не несёт ответственности за их содержание. Просьба не заливать файлы, защищенные авторскими правами, а также файлы нелегального содержания!


    _________________
    [Профиль] [ЛС]
    Показать сообщения:    
    Ответить на тему

    Текущее время: Сегодня, в 05:09

    Часовой пояс: GMT + 2



    Вы не можете начинать темы
    Вы не можете отвечать на сообщения
    Вы не можете редактировать свои сообщения
    Вы не можете удалять свои сообщения
    Вы не можете голосовать в опросах
    Вы не можете прикреплять файлы к сообщениям
    Вы не можете скачивать файлы