BitTorrentTracker PerecTracker.org
BitTorrentTracker PerecTracker.org
    
Регистрация  ·  Вход
 
 · 
Забыли пароль?

  • Луковые новости / Луковый кинофильм / The Onion Movie (Том Кунц / Tom Kuntz, Майк Магвайр / Mike Maguire) [2008, США, комедия, сатира, HDTV 1080i] MVO

    Ответить на тему
     
    Автор Сообщение

    Light

    Создавать темы 13-Июн-2016 00:01

           

    [Цитировать]

    Луковые новости / Луковый кинофильм / The Onion Movie
    Страна: США
    Жанр: комедия, сатира
    Год выпуска: 2008
    Продолжительность: 01:19:03
    Перевод: Профессиональный (многоголосый закадровый)
    Cубтитры: нет
    Оригинальная аудиодорожка: нет
    Режиссер: Том Кунц / Tom Kuntz, Майк Магвайр / Mike Maguire
    В ролях: Стивен Сигал, Ахмед Ахмед, Ахмед Б. Бадран, Бо Баррет, Дэн Бенсон, Джексон Болт, Майкл Брэйнэрд, Лен Кариу
    Описание: "The Onion News" начала свое существование с выпуска одноименной газеты еще в 88м году. Потом перебралась на телевидение и, наконец, в Интернет. Что в этом странного, спросите вы – ну еще один новостной таблоид, и что? А то, что основная часть новостей у данной организации придуманы и являются циничным зеркалом окружающего мира. На их сайте находится достаточно большая подборка новостей на все случаи жизни (например новость: «Кинокомпания решила снять, по популярному трейлеру Iron Man полнометражный фильм», или «Почему слово «Херня» должна быть обязательным пунктом в выборной бюллетене»), причем сделаны они действительно качественно и более чем профессионально (видимо сказывается многолетний опыт работы в рамках пародийных новостей).
    Полнометражный фильм по большому счету и состоит из такого рода скетчей-новостей, которые скрепляются несколькими общими персонажами, среди которых присутствует даже Стивен Сигал и его новый фильм «Удар по яйцам», трейлер которого периодически появляется во время рекламных пауз.
    Практически все зарисовки играют на гране фола, что правда совершенно не мешает просмотру. Слов не хватает, что бы адекватно и внятно описать всю эту истерию, которая происходит на экране, от кассетного пособия «как стать шахидом за пять простых уроков» и до слогана компании «мы вытащим ваши яички из любого отверстия». Главное что за всеми этими пошлостями просматривается ирония над современными устоями и порядками.…
    Сэмпл: http://multi-up.com/1105546
    Тип релиза: HDTV 1080i
    Контейнер: TS
    Видео: AVC, 1920x1080 (16:9), 25.000 fps, 14.5 Mbps (0.280 bit/pixel)
    Аудио: MP2, 48.0 KHz, 2 ch, 192 Kbps, CBR (Russian)

    MediaInfo

    Общее
    Идентификатор : 3 (0x3)
    Полное имя : M:\Луковые новости.TS
    Формат : MPEG-TS
    Размер файла : 8,55 Гбайт
    Продолжительность : 1 ч. 19 м.
    Режим общего битрейта : Переменный
    Общий поток : 15,5 Мбит/сек
    Видео
    Идентификатор : 2141 (0x85D)
    Идентификатор меню : 21004 (0x520C)
    Формат : AVC
    Формат/Информация : Advanced Video Codec
    Профиль формата : Main@L4
    Параметр CABAC формата : Да
    Параметр ReFrames формата : 3 кадра
    Идентификатор кодека : 27
    Продолжительность : 1 ч. 19 м.
    Битрейт : 14,5 Мбит/сек
    Ширина : 1920 пикселей
    Высота : 1080 пикселей
    Соотношение сторон : 16:9
    Частота кадров : 25,000 кадров/сек
    Стандарт вещания : Component
    Цветовое пространство : YUV
    Субдискретизация насыщенности : 4:2:0
    Битовая глубина : 8 бит
    Тип развёртки : Чересстрочная
    Метод сохранения типа развёртки : Раздельные поля
    Порядок развёртки : Верхнее поле первое
    Бит/(Пиксели*Кадры) : 0.280
    Размер потока : 8,02 Гбайт (94%)
    Цветовой диапазон : Limited
    Основные цвета : BT.709
    Характеристики трансфера : BT.709
    Коэффициенты матрицы : BT.709
    Аудио
    Идентификатор : 2142 (0x85E)
    Идентификатор меню : 21004 (0x520C)
    Формат : MPEG Audio
    Версия формата : Version 1
    Профиль формата : Layer 2
    Идентификатор кодека : 4
    Продолжительность : 1 ч. 19 м.
    Вид битрейта : Постоянный
    Битрейт : 192 Кбит/сек
    Каналы : 2 канала
    Частота : 48,0 КГц
    Метод сжатия : С потерями
    Задержка видео : -9 мс.
    Размер потока : 109 Мбайт (1%)
    Язык : Russian

    Скриншоты

    Скачать .torrent

    Скачать торрент-файл бесплатно и на максимальной скорости!

    Как скачивать? · Что такое торрент? · Рейтинг и ограничения

    !ВНИМАНИЕ!
    Сайт не распространяет и не хранит электронные версии произведений, а занимается лишь лишь предоставлением доступа к создаваемому пользователями каталогу ссылок на торрент-файлы, которые содержат только списки хеш-сумм, убедительная просьба с жалобами обращаться напрямую к пользователю. Файлы для обмена на трекере предоставлены пользователями сайта, и администрация не несёт ответственности за их содержание. Просьба не заливать файлы, защищенные авторскими правами, а также файлы нелегального содержания!


    _________________
    [Профиль] [ЛС]
    Показать сообщения:    
    Ответить на тему

    Текущее время: Сегодня, в 13:51

    Часовой пояс: GMT + 2



    Вы не можете начинать темы
    Вы не можете отвечать на сообщения
    Вы не можете редактировать свои сообщения
    Вы не можете удалять свои сообщения
    Вы не можете голосовать в опросах
    Вы не можете прикреплять файлы к сообщениям
    Вы не можете скачивать файлы