BitTorrentTracker PerecTracker.org
BitTorrentTracker PerecTracker.org
    
Регистрация  ·  Вход
 
 · 
Забыли пароль?

  • [ATV3] Затмение / Regression (Алехандро Аменабар / Alejandro Amenábar) [2015, Испания, Канада, Триллер, драма, криминал, детектив, BDRip, HD (1080p)] DUB + Original + sub (rus, eng)

    Ответить на тему
     
    Автор Сообщение

    rechyn

    Создавать темы 12-Июн-2016 19:56

           

    [Цитировать]

    Затмение / Regression
    «Страх всегда находит свою жертву»
    5.695 / 10 5.70 / 10
    -Год выпуска: 2015
    Страна: Испания, Канада
    Жанр: Триллер, драма, криминал, детектив
    Продолжительность: 01:46:00
    Перевод: Дублированный (iTunes)
    Оригинальная аудиодорожка: Есть
    Cубтитры: Русские, Английские
    Режиссёр: Алехандро Аменабар
    Сценарий: Алехандро Аменабар
    Продюсер: Алехандро Аменабар, Фернандо Бовайра, Кристина Пиовесан
    Оператор: Даниэль Араньо
    Композитор: Роке Баньос
    Художник: Кэрол Спайэр, Элинор Роуз Гэлбрейт, Соня Гранде
    Монтаж: Каролина Мартинез Урбина
    В ролях: Итан Хоук, Эмма Уотсон, Дэвид Тьюлис, Лотер Блюто, Дейл Дикки, Давид Денсик, Девон Бостик, Аарон Эшмор, Питер МакНейл, Адам Батчер
    Сборы в США: $55 039
    Сборы в мире: + $17 616 062 = $17 671 101
    Сборы в России: $238 017
    Мировая премьера: 18 сентября 2015
    Премьера (РФ): 4 февраля 2016, «Вольга»
    Описание: В ходе расследования дела Анджелы Грей детектив Брюс Киннер вынужден обратиться к психологу для выявления ее подавленных воспоминаний. Сеанс регрессивного гипноза открывает ужасающие факты — по ночам с согласия отца над девушкой проводились сатанинские ритуалы. Желая защитить девушку от преследования зловещего тайного общества, детектив оказывается втянут в пугающий мир оккультизма. То, что ему противостоит, находится за гранью понимания и способно бросить вызов его убеждениям и вере.-Качество исходника: Blu-Ray (BlueBird)
    Качество: BDRip
    Тип: HD (1080p)
    Контейнер: M4V
    Видео: H.264, 1920x800, 2.40:1, 8 000 Kbps, 23.976 fps
    Аудио 1: Русский/Дублированный (iTunes), AAC / 2.0 / 157 Kbps / 48.0 KHz
    Аудио 2: Английский/Оригинальная дорожка , AAC / 2.0 / 157 Kbps / 48.0 KHz
    Аудио 3: Русский/Дублированный (iTunes), AC-3 / 5.1 / 384 Kbps / 48.0 KHz
    Аудио 4: Английский/Оригинальная дорожка , AC-3 / 5.1 / 640 Kbps / 48.0 KHz
    Субтитры 1: Русские полные
    Субтитры 2: Английские полные
    -

    iTunes Meta Tags

    Sort Name: Regression
    XID: Apple:vendor_id:2015-807650
    contentID: 1070203798
    Copyright: © 2015 Entertainment Film Distributors
    Screenwriters: Алехандро Аменабар
    Producers: Алехандро Аменабар, Фернандо Бовайра, Кристина Пиовесан
    Director: Алехандро Аменабар
    Cast: Эмма Уотсон, Итан Хоук, Дэвид Тьюлис, Девон Бостик, Аарон Эшмор, Дейл Дикки, Давид Денсик, Адам Батчер, Кристиан Бруун, Аарон Абрамс
    Studio: Entertainment Film Distributors
    Rating: 125
    Long Description: В ходе расследования дела Анджелы Грей детектив Брюс Киннер вынужден обратиться к психологу для выявления ее подавленных воспоминаний. Сеанс регрессивного гипноза открывает ужасающие факты - по ночам с согласия отца над девушкой проводились сатанинские ритуалы. Желая защитить девушку от преследования зловещего тайного общества, детектив оказывается втянут в пугающий мир оккультизма. То, что ему противостоит, находится за гранью понимания и способно бросить вызов его убеждениям и вере.
    Description: В ходе расследования дела Анджелы Грей детектив Брюс Киннер вынужден обратиться к психологу для выявления ее подавленных воспоминаний. Сеанс регрессивного гипноза открывает ужасающие факты - по ночам с согласия отца над девушкой проводились сатанинские ритуалы. Желая защитить девушку от преследования зловещего тайного общества, детектив оказывается втянут в пугающий мир оккультизма. То, что ему противостоит, находится за гранью понимания и способно бросить вызов его убеждениям и вере.
    Release Date: 2015-09-18T08:00:00Z
    Genre: Horror
    Artist: Alejandro Amenábar
    Name: Regression

    MediaInfo

    General
    Complete name : /Users/imac/HandBrake/Regression (1080p HD).m4v
    Format : MPEG-4
    Codec ID : M4V
    File size : 6.92 GiB
    Duration : 1h 46mn
    Overall bit rate mode : Variable
    Overall bit rate : 9 345 Kbps
    Movie name : Regression
    Performer : Alejandro Amenábar
    Director : Алехандро Аменабар
    Actor : Эмма Уотсон / Итан Хоук / Дэвид Тьюлис / Девон Бостик / Аарон Эшмор / Дейл Дикки / Давид Денсик / Адам Батчер / Кристиан Бруун / Аарон Абрамс
    Screenplay by : Алехандро Аменабар
    Producer : Алехандро Аменабар / Фернандо Бовайра / Кристина Пиовесан
    Production studio : Entertainment Film Distributors
    Genre : Horror
    ContentType : Short Film
    Description : В ходе расследования дела Анджелы Грей детектив Брюс Киннер вынужден обратиться к психологу для выявления ее подавленных воспоминаний. Сеанс регрессивного гипноза открывает ужасающие факты - по ночам с согласия отца над девушкой проводились сатанинские ритуалы. Желая защитить девушку от преследования зловещего тайного общества, детектив оказывается втянут в пугающий мир оккультизма. То, что ему противостоит, находится за гранью понимания и способно бросить вызов его убеждениям и вере.
    Recorded date : UTC 2015-09-18 08:00:00
    Encoded date : UTC 2016-06-12 11:39:51
    Tagged date : UTC 2016-06-12 11:42:36
    Copyright : © 2015 Entertainment Film Distributors
    Cover : Yes
    Rating : None
    Title/Sort : Regression
    LongDescription : В ходе расследования дела Анджелы Грей детектив Брюс Киннер вынужден обратиться к психологу для выявления ее подавленных воспоминаний. Сеанс регрессивного гипноза открывает ужасающие факты - по ночам с согласия отца над девушкой проводились сатанинские ритуалы. Желая защитить девушку от преследования зловещего тайного общества, детектив оказывается втянут в пугающий мир оккультизма. То, что ему противостоит, находится за гранью понимания и способно бросить вызов его убеждениям и вере.
    AppleStoreCatalogID : 1070203798
    Vendor : Apple:vendor_id:2015-807650
    ContentRating : uk-movie|15|350|
    Video #1
    ID : 1
    Format : AVC
    Format/Info : Advanced Video Codec
    Format profile : High@L4
    Format settings, CABAC : Yes
    Format settings, ReFrames : 4 frames
    Codec ID : avc1
    Codec ID/Info : Advanced Video Coding
    Duration : 1h 46mn
    Source duration : 1h 46mn
    Bit rate : 8 000 Kbps
    Width : 1 920 pixels
    Height : 800 pixels
    Display aspect ratio : 2.40:1
    Frame rate mode : Variable
    Frame rate : 23.976 fps
    Minimum frame rate : 23.810 fps
    Maximum frame rate : 24.272 fps
    Color space : YUV
    Chroma subsampling : 4:2:0
    Bit depth : 8 bits
    Scan type : Progressive
    Bits/(Pixel*Frame) : 0.217
    Stream size : 5.92 GiB (86%)
    Source stream size : 5.92 GiB (86%)
    Title : Main Program
    Writing library : x264 core 142 r2479 dd79a61
    Encoding settings : cabac=1 / ref=4 / deblock=1:-2:-2 / analyse=0x3:0x133 / me=umh / subme=10 / psy=1 / psy_rd=1.00:0.15 / mixed_ref=1 / me_range=32 / chroma_me=1 / trellis=2 / 8x8dct=1 / cqm=0 / deadzone=21,11 / fast_pskip=0 / chroma_qp_offset=-3 / threads=36 / lookahead_threads=6 / sliced_threads=0 / nr=0 / decimate=0 / interlaced=0 / bluray_compat=0 / constrained_intra=0 / bframes=16 / b_pyramid=2 / b_adapt=2 / b_bias=0 / direct=3 / weightb=1 / open_gop=0 / weightp=2 / keyint=240 / keyint_min=24 / scenecut=40 / intra_refresh=0 / rc_lookahead=60 / rc=2pass / mbtree=1 / bitrate=8000 / ratetol=1.0 / qcomp=0.70 / qpmin=0 / qpmax=69 / qpstep=4 / cplxblur=20.0 / qblur=0.5 / vbv_maxrate=25000 / vbv_bufsize=25000 / nal_hrd=none / filler=0 / ip_ratio=1.40 / aq=1:1.00
    Language : English
    Encoded date : UTC 2016-06-12 11:39:51
    Tagged date : UTC 2016-06-12 11:40:00
    Color range : Limited
    Color primaries : BT.709
    Transfer characteristics : BT.709
    Matrix coefficients : BT.709
    Video #2
    ID : 9
    Format : JPEG
    Codec ID : jpeg
    Duration : 1h 46mn
    Bit rate mode : Variable
    Bit rate : 680 bps
    Width : 640 pixels
    Height : 266 pixels
    Display aspect ratio : 2.40:1
    Frame rate mode : Variable
    Frame rate : 0.002 fps
    Minimum frame rate : 0.001 fps
    Maximum frame rate : 0.003 fps
    Color space : YUV
    Chroma subsampling : 4:2:0
    Bit depth : 8 bits
    Compression mode : Lossy
    Bits/(Pixel*Frame) : 1.997
    Stream size : 498 KiB (0%)
    Title : Chapter Images
    Language : English
    Encoded date : UTC 2016-06-12 11:40:09
    Tagged date : UTC 2016-06-12 11:40:09
    Audio #1
    ID : 2
    Format : AAC
    Format/Info : Advanced Audio Codec
    Format profile : LC
    Codec ID : 40
    Duration : 1h 46mn
    Bit rate mode : Variable
    Bit rate : 157 Kbps
    Maximum bit rate : 267 Kbps
    Channel(s) : 2 channels
    Channel positions : Front: L R
    Sampling rate : 48.0 KHz
    Compression mode : Lossy
    Stream size : 119 MiB (2%)
    Title : Russian Stereo
    Language : Russian
    Encoded date : UTC 2016-06-12 11:39:51
    Tagged date : UTC 2016-06-12 11:40:03
    Audio #2
    ID : 3
    Format : AAC
    Format/Info : Advanced Audio Codec
    Format profile : LC
    Codec ID : 40
    Duration : 1h 46mn
    Bit rate mode : Variable
    Bit rate : 157 Kbps
    Maximum bit rate : 244 Kbps
    Channel(s) : 2 channels
    Channel positions : Front: L R
    Sampling rate : 48.0 KHz
    Compression mode : Lossy
    Stream size : 119 MiB (2%)
    Title : English Stereo
    Language : English
    Encoded date : UTC 2016-06-12 11:39:51
    Tagged date : UTC 2016-06-12 11:40:03
    Audio #3
    ID : 4
    Format : AC-3
    Format/Info : Audio Coding 3
    Mode extension : CM (complete main)
    Format settings, Endianness : Big
    Codec ID : ac-3
    Duration : 1h 46mn
    Bit rate mode : Constant
    Bit rate : 384 Kbps
    Channel(s) : 6 channels
    Channel positions : Front: L C R, Side: L R, LFE
    Sampling rate : 48.0 KHz
    Bit depth : 16 bits
    Compression mode : Lossy
    Stream size : 291 MiB (4%)
    Title : Russian DD 5.1
    Language : Russian
    Encoded date : UTC 2016-06-12 11:39:51
    Tagged date : UTC 2016-06-12 11:40:02
    Audio #4
    ID : 5
    Format : AC-3
    Format/Info : Audio Coding 3
    Mode extension : CM (complete main)
    Format settings, Endianness : Big
    Codec ID : ac-3
    Duration : 1h 46mn
    Bit rate mode : Constant
    Bit rate : 640 Kbps
    Channel(s) : 6 channels
    Channel positions : Front: L C R, Side: L R, LFE
    Sampling rate : 48.0 KHz
    Bit depth : 16 bits
    Compression mode : Lossy
    Stream size : 486 MiB (7%)
    Title : English DD 5.1
    Language : English
    Encoded date : UTC 2016-06-12 11:39:51
    Tagged date : UTC 2016-06-12 11:40:02
    Text #1
    ID : 6
    Format : Timed Text
    Muxing mode : sbtl
    Codec ID : tx3g
    Duration : 1h 39mn
    Bit rate mode : Variable
    Bit rate : 104 bps
    Stream size : 76.1 KiB (0%)
    Title : Russian full
    Language : Russian
    Encoded date : UTC 2016-06-12 11:39:51
    Tagged date : UTC 2016-06-12 11:39:51
    Text #2
    ID : 7
    Format : Timed Text
    Muxing mode : sbtl
    Codec ID : tx3g
    Duration : 1h 39mn
    Bit rate mode : Variable
    Bit rate : 58 bps
    Stream size : 42.4 KiB (0%)
    Title : English full
    Language : English
    Encoded date : UTC 2016-06-12 11:39:51
    Tagged date : UTC 2016-06-12 11:39:51
    Menu #1
    00:00:00.000 : Chapter 1
    00:12:13.650 : Chapter 2
    00:19:55.611 : Chapter 3
    00:29:56.086 : Chapter 4
    00:39:52.307 : Chapter 5
    00:48:11.472 : Chapter 6
    00:57:51.843 : Chapter 7
    01:09:43.346 : Chapter 8
    01:16:53.025 : Chapter 9
    01:23:58.659 : Chapter 10
    01:30:01.062 : Chapter 11
    01:36:06.594 : Chapter 12
    Menu #2
    ID : 8
    Codec ID : text
    Duration : 1h 46mn
    Language : English
    Encoded date : UTC 2016-06-12 11:40:03
    Tagged date : UTC 2016-06-12 11:40:03
    00:00:00.000 : Chapter 1
    00:12:13.650 : Chapter 2
    00:19:55.611 : Chapter 3
    00:29:56.086 : Chapter 4
    00:39:52.307 : Chapter 5
    00:48:11.472 : Chapter 6
    00:57:51.843 : Chapter 7
    01:09:43.346 : Chapter 8
    01:16:53.025 : Chapter 9
    01:23:58.659 : Chapter 10
    01:30:01.062 : Chapter 11
    01:36:06.594 : Chapter 12
    Bit rate mode : VBR

    x264 лог

    x264 [info]: frame I:884   Avg QP:13.52  size:185136
    x264 [info]: frame P:32727 Avg QP:16.12  size: 70068
    x264 [info]: frame B:118976 Avg QP:16.83  size: 32820
    x264 [info]: consecutive B-frames:  2.4%  3.1% 10.6%  8.5% 14.1% 46.9%  8.3%  1.1%  1.1%  0.6%  1.0%  0.5%  0.7%  0.3%  0.2%  0.1%  0.5%
    x264 [info]: mb I  I16..4: 23.4% 57.3% 19.3%
    x264 [info]: mb P  I16..4:  7.0% 20.1%  2.3%  P16..4: 34.4% 18.0% 10.7%  0.4%  0.1%    skip: 7.0%
    x264 [info]: mb B  I16..4:  2.1%  3.3%  0.5%  B16..8: 37.2% 10.2%  2.4%  direct:13.3%  skip:31.2%  L0:45.0% L1:43.9% BI:11.1%
    x264 [info]: 8x8 transform intra:63.1% inter:58.1%
    x264 [info]: direct mvs  spatial:99.2% temporal:0.8%
    x264 [info]: coded y,uvDC,uvAC intra: 81.6% 74.5% 56.1% inter: 34.8% 37.5% 14.2%
    x264 [info]: i16 v,h,dc,p: 26% 10% 39% 25%
    x264 [info]: i8 v,h,dc,ddl,ddr,vr,hd,vl,hu: 12% 10% 22%  8%  9% 10%  9% 10% 10%
    x264 [info]: i4 v,h,dc,ddl,ddr,vr,hd,vl,hu: 14% 11% 23%  7%  9%  9%  9%  7%  9%
    x264 [info]: i8c dc,h,v,p: 55% 19% 19%  7%
    x264 [info]: Weighted P-Frames: Y:3.2% UV:1.7%
    x264 [info]: ref P L0: 49.9%  8.2% 27.4% 13.1%  1.4%  0.0%
    x264 [info]: ref B L0: 81.5% 15.0%  3.5%
    x264 [info]: ref B L1: 89.5% 10.5%
    x264 [info]: kb/s:7996.73

    Скриншоты

    -

    Релиз подготовлен для просмотра на Apple TV, iPad, iPhone, iPod Touch.
    Для просмотра данного релиза на компьютере с ОС Windows рекомендуется использовать VLC media player
    Скачать .torrent

    Скачать торрент-файл бесплатно и на максимальной скорости!

    Как скачивать? · Что такое торрент? · Рейтинг и ограничения

    !ВНИМАНИЕ!
    Сайт не распространяет и не хранит электронные версии произведений, а занимается лишь лишь предоставлением доступа к создаваемому пользователями каталогу ссылок на торрент-файлы, которые содержат только списки хеш-сумм, убедительная просьба с жалобами обращаться напрямую к пользователю. Файлы для обмена на трекере предоставлены пользователями сайта, и администрация не несёт ответственности за их содержание. Просьба не заливать файлы, защищенные авторскими правами, а также файлы нелегального содержания!


    _________________
    [Профиль] [ЛС]
    Показать сообщения:    
    Ответить на тему

    Текущее время: Сегодня, в 04:00

    Часовой пояс: GMT + 2



    Вы не можете начинать темы
    Вы не можете отвечать на сообщения
    Вы не можете редактировать свои сообщения
    Вы не можете удалять свои сообщения
    Вы не можете голосовать в опросах
    Вы не можете прикреплять файлы к сообщениям
    Вы не можете скачивать файлы