BitTorrentTracker PerecTracker.org
BitTorrentTracker PerecTracker.org
    
Регистрация  ·  Вход
 
 · 
Забыли пароль?

  • Эдди «Орёл» / Eddie the Eagle (Декстер Флетчер / Dexter Fletcher) [2016, Великобритания, драма, комедия, биография, спорт, BDRip-AVC] Dub + Original + Sub (rus, eng)

    Ответить на тему
     
    Автор Сообщение

    rechyn

    Создавать темы 12-Июн-2016 19:56

           

    [Цитировать]

    Эдди «Орёл» / Eddie the Eagle«The hysterical true life story of Britain's most famous ski jumper Eddie 'The Eagle' Edwards and his journey to Olympic fame»-Страна: Великобритания, США, Германия
    Жанр: драма, комедия, биография, спорт
    Год выпуска: 2016
    Продолжительность: 01:45:43
    Перевод: Профессиональный (полное дублирование) (iTunes)
    Оригинальная аудиодорожка: английский
    Cубтитры: русские (форс., полные) английские (форс., полные)
    Навигация по главам: есть
    Режиссеры: Декстер Флетчер / Dexter Fletcher
    В ролях: Тэрон Эджертон, Хью Джекман, Кристофер Уокен, Джо Хартли, Том Костелло, Кит Аллен, Дикон Толсон, Джек Костелло, Марк Бентон, Тим МакИннерни
    Описание: Фильм повествует о трамплинисте Эдди, по прозвищу «Орел». Он прославился благодаря своим неудачам, ибо на всех соревнованиях он занимал последние места.

    Качество видео: BDRip-AVC (исходник - BDRemux|EDDIE_THE_EAGLE_REMUX_HDCLUB)
    Формат видео: MKV
    Видео: x264, 1152х482 (2.40:1), 23,976 fps, ~2053 kbps, 0.154 bit/pixel
    Аудио 1: 48 kHz, AC3 Dolby Digital, 3/2 (L,C,R,l,r) + LFE ch, ~384 kbps [русский]
    Аудио 2: 48 kHz, AC3 Dolby Digital, 3/2 (L,C,R,l,r) + LFE ch, ~384 kbps [английский]
    Формат субтитров: softsub (SRT)
    MediaInfo | x264 log
    Format : Matroska
    Format version : Version 4 / Version 2
    File size : 2.13 GiB
    Duration : 1h 45mn
    Overall bit rate : 2 878 Kbps
    Movie name : Эдди «Орел» / Eddie the Eagle (2016) :: AFM ::
    Encoded date : UTC 2016-06-11 17:21:49
    Writing application : mkvmerge v8.3.0 ('Over the Horizon') 32bit
    Writing library : libebml v1.3.1 + libmatroska v1.4.2
    Video
    ID : 1
    Format : AVC
    Format/Info : Advanced Video Codec
    Format profile : High@L4.1
    Format settings, CABAC : Yes
    Format settings, ReFrames : 11 frames
    Codec ID : V_MPEG4/ISO/AVC
    Duration : 1h 45mn
    Bit rate : 2 053 Kbps
    Width : 1 152 pixels
    Height : 482 pixels
    Display aspect ratio : 2.40:1
    Frame rate mode : Constant
    Frame rate : 23.976 fps
    Color space : YUV
    Chroma subsampling : 4:2:0
    Bit depth : 8 bits
    Scan type : Progressive
    Bits/(Pixel*Frame) : 0.154
    Stream size : 1.52 GiB (71%)
    Title : BDRip by AFM [RuTracker.org]
    Writing library : x264 core 148 r2665+53 6629127 t_mod_Custom [8-bit@all X86_64]
    Encoding settings : cabac=1 / ref=11 / deblock=1:-3:-2 / analyse=0x3:0x113 / me=umh / subme=10 / psy=1 / fade_compensate=0.00 / psy_rd=1.00:0.00 / mixed_ref=1 / me_range=32 / chroma_me=1 / trellis=2 / 8x8dct=1 / cqm=0 / deadzone=21,11 / fast_pskip=0 / chroma_qp_offset=-2 / threads=6 / lookahead_threads=1 / sliced_threads=0 / nr=0 / decimate=1 / interlaced=0 / bluray_compat=0 / constrained_intra=0 / fgo=0 / bframes=13 / b_pyramid=2 / b_adapt=2 / b_bias=0 / direct=1 / weightb=1 / open_gop=0 / weightp=2 / keyint=250 / keyint_min=23 / scenecut=40 / intra_refresh=0 / rc_lookahead=40 / rc=crf / mbtree=0 / crf=16.8000 / qcomp=0.65 / qpmin=0:0:0 / qpmax=69:69:69 / qpstep=4 / vbv_maxrate=50000 / vbv_bufsize=62500 / crf_max=0.0 / nal_hrd=none / filler=0 / ip_ratio=1.30 / pb_ratio=1.25 / aq=1:0.80 / aq-sensitivity=10.00 / aq-factor=1.00:1.00:1.00 / aq2=0 / aq3=0
    Language : English
    Default : Yes
    Forced : No
    Audio #1
    ID : 2
    Format : AC-3
    Format/Info : Audio Coding 3
    Mode extension : CM (complete main)
    Format settings, Endianness : Big
    Codec ID : A_AC3
    Duration : 1h 45mn
    Bit rate mode : Constant
    Bit rate : 384 Kbps
    Channel(s) : 6 channels
    Channel positions : Front: L C R, Side: L R, LFE
    Sampling rate : 48.0 KHz
    Compression mode : Lossy
    Stream size : 290 MiB (13%)
    Title : Dub, AC3 5.1 ~384 kbps
    Language : Russian
    Default : Yes
    Forced : No
    Audio #2
    ID : 3
    Format : AC-3
    Format/Info : Audio Coding 3
    Mode extension : CM (complete main)
    Format settings, Endianness : Big
    Codec ID : A_AC3
    Duration : 1h 45mn
    Bit rate mode : Constant
    Bit rate : 384 Kbps
    Channel(s) : 6 channels
    Channel positions : Front: L C R, Side: L R, LFE
    Sampling rate : 48.0 KHz
    Compression mode : Lossy
    Stream size : 290 MiB (13%)
    Title : Original, AC3 5.1 ~384 kbps
    Language : English
    Default : No
    Forced : No
    Text #1
    ID : 4
    Format : UTF-8
    Codec ID : S_TEXT/UTF8
    Codec ID/Info : UTF-8 Plain Text
    Title : forced
    Language : Russian
    Default : Yes
    Forced : No
    Text #2
    ID : 5
    Format : UTF-8
    Codec ID : S_TEXT/UTF8
    Codec ID/Info : UTF-8 Plain Text
    Language : Russian
    Default : No
    Forced : No
    Text #3
    ID : 6
    Format : UTF-8
    Codec ID : S_TEXT/UTF8
    Codec ID/Info : UTF-8 Plain Text
    Title : forced
    Language : English
    Default : No
    Forced : No
    Text #4
    ID : 7
    Format : UTF-8
    Codec ID : S_TEXT/UTF8
    Codec ID/Info : UTF-8 Plain Text
    Language : English
    Default : No
    Forced : No
    Menu
    00:00:00.000 : en:Chapter 01
    00:03:33.171 : en:Chapter 02
    00:08:15.161 : en:Chapter 03
    00:12:06.684 : en:Chapter 04
    00:17:54.573 : en:Chapter 05
    00:21:31.081 : en:Chapter 06
    00:26:19.578 : en:Chapter 07
    00:31:41.566 : en:Chapter 08
    00:37:13.273 : en:Chapter 09
    00:41:46.963 : en:Chapter 10
    00:47:12.329 : en:Chapter 11
    00:50:19.350 : en:Chapter 12
    00:53:39.591 : en:Chapter 13
    00:56:57.581 : en:Chapter 14
    01:02:22.906 : en:Chapter 15
    01:08:16.884 : en:Chapter 16
    01:11:42.298 : en:Chapter 17
    01:17:05.788 : en:Chapter 18
    01:20:00.587 : en:Chapter 19
    01:23:23.457 : en:Chapter 20
    01:27:44.593 : en:Chapter 21
    01:31:40.120 : en:Chapter 22
    01:36:53.057 : en:Chapter 23
    01:40:42.078 : en:Chapter 24

    x264

    x264 [info]: frame I:1252 Avg QP:15.60 size: 79802
    x264 [info]: frame P:31111 Avg QP:17.07 size: 24421
    x264 [info]: frame B:119726 Avg QP:19.90 size: 6781
    x264 [info]: consecutive B-frames: 1.6% 1.7% 6.2% 22.0% 20.3% 29.3% 6.7% 5.9% 1.8% 1.1% 1.0% 0.4% 0.9% 1.1%
    x264 [info]: mb I I16..4: 5.7% 70.5% 23.7%
    x264 [info]: mb P I16..4: 0.4% 6.7% 1.6% P16..4: 37.5% 29.5% 17.1% 0.0% 0.0% skip: 7.1%
    x264 [info]: mb B I16..4: 0.0% 0.6% 0.2% B16..8: 34.8% 11.2% 3.1% direct: 4.1% skip:46.0% L0:40.9% L1:43.1% BI:16.0%
    x264 [info]: 8x8 transform intra:74.2% inter:59.8%
    x264 [info]: coded y,uvDC,uvAC intra: 85.2% 86.4% 69.6% inter: 16.7% 14.9% 5.8%
    x264 [info]: i16 v,h,dc,p: 29% 14% 5% 52%
    x264 [info]: i8 v,h,dc,ddl,ddr,vr,hd,vl,hu: 21% 11% 6% 7% 11% 11% 12% 10% 11%
    x264 [info]: i4 v,h,dc,ddl,ddr,vr,hd,vl,hu: 27% 8% 4% 8% 13% 11% 12% 9% 10%
    x264 [info]: i8c dc,h,v,p: 36% 26% 24% 14%
    x264 [info]: Weighted P-Frames: Y:96.9% UV:1.1%
    x264 [info]: ref P L0: 48.4% 11.5% 15.9% 6.4% 4.8% 3.8% 3.0% 1.8% 1.5% 1.4% 1.3% 0.1% 0.0%
    x264 [info]: ref B L0: 72.2% 12.0% 5.9% 3.0% 2.2% 1.6% 1.3% 0.8% 0.5% 0.2%
    x264 [info]: ref B L1: 91.0% 9.0%
    x264 [info]: kb/s:2108.11

    Скриншоты

    с названием

    Скачать .torrent

    Скачать торрент-файл бесплатно и на максимальной скорости!

    Как скачивать? · Что такое торрент? · Рейтинг и ограничения

    !ВНИМАНИЕ!
    Сайт не распространяет и не хранит электронные версии произведений, а занимается лишь лишь предоставлением доступа к создаваемому пользователями каталогу ссылок на торрент-файлы, которые содержат только списки хеш-сумм, убедительная просьба с жалобами обращаться напрямую к пользователю. Файлы для обмена на трекере предоставлены пользователями сайта, и администрация не несёт ответственности за их содержание. Просьба не заливать файлы, защищенные авторскими правами, а также файлы нелегального содержания!


    _________________
    [Профиль] [ЛС]
    Показать сообщения:    
    Ответить на тему

    Текущее время: Сегодня, в 15:40

    Часовой пояс: GMT + 2



    Вы не можете начинать темы
    Вы не можете отвечать на сообщения
    Вы не можете редактировать свои сообщения
    Вы не можете удалять свои сообщения
    Вы не можете голосовать в опросах
    Вы не можете прикреплять файлы к сообщениям
    Вы не можете скачивать файлы