BitTorrentTracker PerecTracker.org
BitTorrentTracker PerecTracker.org
    
Регистрация  ·  Вход
 
 · 
Забыли пароль?

  • Колония Дигнидад / Colonia / Colonia Dignidad / Es gibt kein Zurück (Флориан Галленбергер / Florian Gallenberger) [2015, Германия, Люксембург, Франция, мелодрама, психологическая драма, триллер, HDRip] Dub (iTunes)

    Ответить на тему
     
    Автор Сообщение

    Light

    Создавать темы 11-Июн-2016 02:26

           

    [Цитировать]

    Колония Дигнидад / Colonia / Colonia Dignidad / Es gibt kein Zurück
    Страна: Германия, Люксембург, Франция
    Жанр: Мелодрама, психологическая драма, триллер
    Год выпуска: 2015
    Продолжительность: 01:49:54
    Перевод: Профессиональный (дублированный) iTunes
    Cубтитры: отсутствует
    Оригинальная аудиодорожка: нет
    Режиссёр: Флориан Галленбергер / Florian Gallenberger
    В ролях: Эмма Уотсон, Даниэль Брюль, Микаель Нюквист, Риченда Кэри, Вики Крипс, Джулиан Овенден, Мартин Вуттке, Аугуст Цирнер, Сесар Бордон, Штефан Мерки, Катарина Мюллер-Элмау, Пауль Хервиг, Жилль Содер
    Описание: Молодая влюблённая немецкая пара - стюардесса Лена и журналист Даниэль, оказываются в эпицентре кровавого военного переворота в Чили. Даниэля арестовывают, подвергают немыслимым пыткам в тайной полиции и отправляют в колонию "Дигнидад", немецкое поселение выдающее себя за благотворительное религиозное общество, а на самом деле концлагерь и гнездо нацистов – беглецов из Третьего рейха... Туда же, добровольно, под видом послушницы, готовящейся стать монашкой, отправляется и Лена, чтоб попытаться спасти любимого... В "Дигнидад" попасть не трудно, но обратной дороги нет…
    В основе фильма реальные события 1973 года.

    Качество видео: HDRip
    Формат видео: AVI
    Video: XviD 73 MPEG-4, 688x288 (2.40:1) 23.976 fps, ~815 kbps avg, 0.172 bit/pixel
    Аudio: MP-3 Joint stereo, CBR 128 kbps 2 ch, 48.0 KHz

    MediaInfo

    ОбщееПолное имя : C:\Colonia_Dignidad_2015_HDRip_[perectracker.org].aviФормат : AVIФормат/Информация : Audio Video InterleaveРазмер файла : 749 МбайтПродолжительность : 1 ч. 49 м.Общий поток : 953 Кбит/секНазвание фильма : Colonia_Dignidad_2015_HDRip_[perectracker.org]Режиссёр : networkЖанр : Психологическая драмаПрограмма кодирования : VirtualDubModRus 1.5.10.2 (build 2542/release)Формат оригинала/Имя : Фильмы 2011-2015Правообладатель : networkПримечание : 9 июня 2016 г.
    ВидеоИдентификатор : 0Формат : MPEG-4 VisualПрофиль формата : Advanced Simple@L5Параметр BVOP формата : 1Параметр QPel формата : НетПараметр GMC формата : Без точки переходаПараметр матрицы формата : ВыборочнаяИдентификатор кодека : DX50Идентификатор кодека/Подсказка : DivX 5Продолжительность : 1 ч. 49 м.Битрейт : 815 Кбит/секШирина : 688 пикселейВысота : 288 пикселейСоотношение сторон : 2,40:1Частота кадров : 23,976 кадра/секЦветовое пространство : YUVСубдискретизация насыщенности : 4:2:0Битовая глубина : 8 битТип развёртки : ПрогрессивнаяМетод сжатия : С потерямиБит/(Пиксели*Кадры) : 0.172Размер потока : 641 Мбайт (86%)Библиотека кодирования : XviD 73
    АудиоИдентификатор : 1Формат : MPEG AudioВерсия формата : Version 1Профиль формата : Layer 3Режим : Joint stereoРасширение режима : MS StereoИдентификатор кодека : 55Идентификатор кодека/Подсказка : MP3Продолжительность : 1 ч. 49 м.Вид битрейта : ПостоянныйБитрейт : 128 Кбит/секКаналы : 2 каналаЧастота : 48,0 КГцМетод сжатия : С потерямиРазмер потока : 101 Мбайт (13%)Выравнивание : Соединение по промежуткамПродолжительность промежутка : 42 мс. (1,00 видеокадр)Время предзагрузки промежутка : 504 мс.Библиотека кодирования : LAME3.99Настройки программы : -m j -V 4 -q 2 -lowpass 17 -b 128

    Скриншот c названием фильма

    Скриншоты

    Время раздачи - по возможности.
    Скачать .torrent

    Скачать торрент-файл бесплатно и на максимальной скорости!

    Как скачивать? · Что такое торрент? · Рейтинг и ограничения

    !ВНИМАНИЕ!
    Сайт не распространяет и не хранит электронные версии произведений, а занимается лишь лишь предоставлением доступа к создаваемому пользователями каталогу ссылок на торрент-файлы, которые содержат только списки хеш-сумм, убедительная просьба с жалобами обращаться напрямую к пользователю. Файлы для обмена на трекере предоставлены пользователями сайта, и администрация не несёт ответственности за их содержание. Просьба не заливать файлы, защищенные авторскими правами, а также файлы нелегального содержания!


    _________________
    [Профиль] [ЛС]
    Показать сообщения:    
    Ответить на тему

    Текущее время: Сегодня, в 16:08

    Часовой пояс: GMT + 2



    Вы не можете начинать темы
    Вы не можете отвечать на сообщения
    Вы не можете редактировать свои сообщения
    Вы не можете удалять свои сообщения
    Вы не можете голосовать в опросах
    Вы не можете прикреплять файлы к сообщениям
    Вы не можете скачивать файлы