BitTorrentTracker PerecTracker.org
BitTorrentTracker PerecTracker.org
    
Регистрация  ·  Вход
 
 · 
Забыли пароль?

  • Колония Дигнидад / Colonia (Флориан Галленбергер / Florian Gallenberger) [2015, Германия, Люксембург, Франция, драма, триллер, история, BDRip-AVC] Dub

    Ответить на тему
     
    Автор Сообщение

    Light

    Создавать темы 11-Июн-2016 02:26

           

    [Цитировать]

    Колония Дигнидад / Colonia«Escape is the only option»-Страна: Германия, Люксембург, Франция
    Жанр: драма, триллер, история
    Год выпуска: 2015
    Продолжительность: 01:49:58
    Перевод: Профессиональный (полное дублирование) (iTunes)
    Cубтитры: нет
    Навигация по главам: есть
    Режиссеры: Флориан Галленбергер / Florian Gallenberger
    В ролях: Эмма Уотсон, Даниэль Брюль, Микаэл Нюквист, Риченда Кэри, Вики Крипс, Джинн Вернер, Джулиан Овенден, Август Цирнер, Мартин Вуттке, Николас Барсофф
    Описание: Немецкий журналист Даниэль похищен в Чили тайной полицией и после немыслимых пыток отправлен в колонию «Дигнидад» — огромное поселение, выдающее себя за благотворительную коммуну, а на самом деле гнездо нацистов — беглецов из Третьего рейха. Колонию возглавляет бывший офицер вермахта, бесноватый проповедник Пауль Шефер, внушающий пастве пользу умерщвления плоти и бесплатного труда от заката до рассвета. В «Дигнидад» легко попасть, но обратной дороги нет. Здесь Даниэлю предстоит превратиться в раба и «материал» для бесчеловечных экспериментов.

    Качество видео: BDRip-AVC (исходник - BDRemux|COLONIA_REMUX_HDCLUB)
    Формат видео: MKV
    Видео: x264, 1152х482 (2.40:1), 23,976 fps, ~2445 kbps, 0.184 bit/pixel
    Аудио: 48 kHz, AC3 Dolby Digital, 3/2 (L,C,R,l,r) + LFE ch, ~384 kbps [русский]
    MediaInfo | x264 log
    Format : Matroska
    Format version : Version 4 / Version 2
    File size : 2.17 GiB
    Duration : 1h 49mn
    Overall bit rate : 2 829 Kbps
    Movie name : Колония Дигнидад / Colonia (2015) :: AFM ::
    Encoded date : UTC 2016-06-09 05:32:35
    Writing application : mkvmerge v8.3.0 ('Over the Horizon') 32bit
    Writing library : libebml v1.3.1 + libmatroska v1.4.2
    Video
    ID : 1
    Format : AVC
    Format/Info : Advanced Video Codec
    Format profile : High@L4.1
    Format settings, CABAC : Yes
    Format settings, ReFrames : 13 frames
    Codec ID : V_MPEG4/ISO/AVC
    Duration : 1h 49mn
    Bit rate : 2 445 Kbps
    Width : 1 152 pixels
    Height : 482 pixels
    Display aspect ratio : 2.40:1
    Frame rate mode : Constant
    Frame rate : 23.976 fps
    Color space : YUV
    Chroma subsampling : 4:2:0
    Bit depth : 8 bits
    Scan type : Progressive
    Bits/(Pixel*Frame) : 0.184
    Stream size : 1.83 GiB (84%)
    Title : BDRip by AFM [RuTracker.org]
    Writing library : x264 core 148 r2665+53 6629127 t_mod_Custom [8-bit@all X86_64]
    Encoding settings : cabac=1 / ref=13 / deblock=1:-2:-2 / analyse=0x3:0x113 / me=umh / subme=10 / psy=1 / fade_compensate=0.00 / psy_rd=1.00:0.00 / mixed_ref=1 / me_range=32 / chroma_me=1 / trellis=2 / 8x8dct=1 / cqm=0 / deadzone=21,11 / fast_pskip=0 / chroma_qp_offset=-2 / threads=6 / lookahead_threads=1 / sliced_threads=0 / nr=0 / decimate=0 / interlaced=0 / bluray_compat=0 / constrained_intra=0 / fgo=0 / bframes=15 / b_pyramid=2 / b_adapt=2 / b_bias=0 / direct=3 / weightb=1 / open_gop=0 / weightp=2 / keyint=250 / keyint_min=23 / scenecut=40 / intra_refresh=0 / rc_lookahead=40 / rc=2pass / mbtree=0 / bitrate=2445 / ratetol=1.0 / qcomp=0.65 / qpmin=0:0:0 / qpmax=69:69:69 / qpstep=4 / cplxblur=20.0 / qblur=0.5 / vbv_maxrate=50000 / vbv_bufsize=62500 / nal_hrd=none / filler=0 / ip_ratio=1.30 / pb_ratio=1.25 / aq=1:0.90 / aq-sensitivity=10.00 / aq-factor=1.00:1.00:1.00 / aq2=0 / aq3=0 / zones=152470,158198,q=30
    Language : English
    Default : Yes
    Forced : No
    Audio
    ID : 2
    Format : AC-3
    Format/Info : Audio Coding 3
    Mode extension : CM (complete main)
    Format settings, Endianness : Big
    Codec ID : A_AC3
    Duration : 1h 49mn
    Bit rate mode : Constant
    Bit rate : 384 Kbps
    Channel(s) : 6 channels
    Channel positions : Front: L C R, Side: L R, LFE
    Sampling rate : 48.0 KHz
    Compression mode : Lossy
    Stream size : 302 MiB (14%)
    Title : Dub, AC3 5.1 ~384 kbps
    Language : Russian
    Default : Yes
    Forced : No
    Menu
    00:00:00.000 : en:Chapter 01
    00:09:30.985 : en:Chapter 02
    00:19:25.202 : en:Chapter 03
    00:25:26.691 : en:Chapter 04
    00:33:36.346 : en:Chapter 05
    00:43:41.994 : en:Chapter 06
    00:47:41.400 : en:Chapter 07
    01:06:31.112 : en:Chapter 08
    01:15:26.395 : en:Chapter 09
    01:25:35.796 : en:Chapter 10
    01:34:36.962 : en:Chapter 11
    01:46:10.322 : en:Chapter 12
    01:49:54.546 : en:Chapter 13

    x264

    x264 [info]: frame I:1447 Avg QP:16.59 size: 76997
    x264 [info]: frame P:32804 Avg QP:19.62 size: 25311
    x264 [info]: frame B:123947 Avg QP:20.55 size: 8661
    x264 [info]: consecutive B-frames: 2.3% 2.6% 6.7% 14.6% 14.2% 45.7% 6.4% 1.9% 1.6% 1.0% 1.0% 0.7% 0.5% 0.5% 0.1% 0.1%
    x264 [info]: mb I I16..4: 3.4% 82.5% 14.1%
    x264 [info]: mb P I16..4: 0.8% 9.9% 1.6% P16..4: 40.6% 28.0% 15.1% 0.0% 0.0% skip: 4.0%
    x264 [info]: mb B I16..4: 0.0% 0.8% 0.2% B16..8: 42.3% 12.2% 3.0% direct: 5.1% skip:36.4% L0:46.5% L1:46.3% BI: 7.2%
    x264 [info]: 8x8 transform intra:80.8% inter:62.6%
    x264 [info]: direct mvs spatial:98.4% temporal:1.6%
    x264 [info]: coded y,uvDC,uvAC intra: 87.0% 86.1% 65.9% inter: 26.1% 22.3% 9.9%
    x264 [info]: i16 v,h,dc,p: 27% 16% 11% 46%
    x264 [info]: i8 v,h,dc,ddl,ddr,vr,hd,vl,hu: 18% 7% 6% 9% 13% 13% 12% 11% 11%
    x264 [info]: i4 v,h,dc,ddl,ddr,vr,hd,vl,hu: 26% 5% 3% 9% 13% 13% 11% 10% 10%
    x264 [info]: i8c dc,h,v,p: 42% 21% 21% 16%
    x264 [info]: Weighted P-Frames: Y:97.1% UV:1.5%
    x264 [info]: ref P L0: 43.6% 8.3% 19.7% 6.3% 6.0% 3.7% 3.8% 1.8% 1.8% 1.3% 1.4% 1.0% 1.2% 0.2% 0.0%
    x264 [info]: ref B L0: 64.9% 14.4% 6.8% 3.8% 2.6% 2.3% 1.7% 1.2% 0.8% 0.8% 0.4% 0.2%
    x264 [info]: ref B L1: 91.2% 8.8%
    x264 [info]: kb/s:2443.41

    Скриншоты

    с названием

    Скачать .torrent

    Скачать торрент-файл бесплатно и на максимальной скорости!

    Как скачивать? · Что такое торрент? · Рейтинг и ограничения

    !ВНИМАНИЕ!
    Сайт не распространяет и не хранит электронные версии произведений, а занимается лишь лишь предоставлением доступа к создаваемому пользователями каталогу ссылок на торрент-файлы, которые содержат только списки хеш-сумм, убедительная просьба с жалобами обращаться напрямую к пользователю. Файлы для обмена на трекере предоставлены пользователями сайта, и администрация не несёт ответственности за их содержание. Просьба не заливать файлы, защищенные авторскими правами, а также файлы нелегального содержания!


    _________________
    [Профиль] [ЛС]
    Показать сообщения:    
    Ответить на тему

    Текущее время: Сегодня, в 22:40

    Часовой пояс: GMT + 2



    Вы не можете начинать темы
    Вы не можете отвечать на сообщения
    Вы не можете редактировать свои сообщения
    Вы не можете удалять свои сообщения
    Вы не можете голосовать в опросах
    Вы не можете прикреплять файлы к сообщениям
    Вы не можете скачивать файлы