BitTorrentTracker PerecTracker.org
BitTorrentTracker PerecTracker.org
    
Регистрация  ·  Вход
 
 · 
Забыли пароль?

  • Невероятные приключения итальянцев в Америке / Mai stati uniti (Карло Ванцина / Carlo Vanzina) [2013, Италия, комедия, DVDRip] VO (LetEatBee)

    Ответить на тему
     
    Автор Сообщение

    Light

    Создавать темы 10-Июн-2016 22:15

           

    [Цитировать]

    Невероятные приключения итальянцев в Америке / Mai stati uniti
    Страна: Италия
    Жанр: комедия
    Год выпуска: 2013
    Продолжительность: 01:30:00
    Перевод: Одноголосый закадровый LetEatBee, перевод c итальянского - Lirik
    Cубтитры: нет
    Оригинальная аудиодорожка: нет
    Режиссер: Карло Ванцина / Carlo Vanzina
    В ролях: Винченцо Салемме, Амбра Анджолини, Рикки Мемфис, Анна Фольетта, Джованни Верниа, Маурицио Маттиоли, Андреа Питторино, Паоло Бассегато, Даниэла Пиперно
    Описание: Анжела — смешная секретарша, вылетевшая с работы за истерику, устроенную в застрявшем лифте самому главному боссу. Нино — катастрофически несмешной клоун, которого освистывают дети на утренниках. Антонио — официант, мнящий себя крутым картежником, но проигрывающий покерную партию даже несовершеннолетнему сыну хозяина. Кармен — безработная красотка, брюнетка с виду, но по интеллектуальному коэффициенту — натуральная блондинка. Микеле — придурковатый работник зоопарка, уволенный по сокращению и захвативший в заложники обезьяну.
    Что объединяет этих неудачников в настоящую сплоченную банду? Кровные узы. Все они, как выясняется, внебрачные дети миллионера Ванни Гальвани, унаследовавшие по завещанию крупную сумму. При одном условии — доставить урну с прахом папаши в Аризону…
    Путешествие будет опасным — за океаном итальянских простаков поджидают искушения и испытания, не менее впечатляющие, чем те, что выпали на долю их мифологического предшественника Геркулеса: медведи гризли, ядовитые змеи, проститутки и казино Вегаса. И наградой за прохождение этого квеста будет подлинное братство, куда более ценное, чем многомиллионное наследство.
    Сэмпл: https://yadi.sk/i/zFk850vdsNRAS
    Качество видео: DVDRip
    Формат видео: AVI
    Видео: XviD, 720х304 (2.35:1), 24.000 fps, 1524 Kbps
    Аудио: AC-3, 48000 kHz, 6 channels, 640 Kbps

    MediaInfo

    Format : AVI
    Format/Info : Audio Video Interleave
    File size : 1.37 GiB
    Duration : 1h 30mn
    Overall bit rate : 2 174 Kbps
    Writing application : VirtualDubMod 1.5.10.3 (build 2550/release)
    Writing library : VirtualDubMod build 2550/release
    Video
    ID : 0
    Format : MPEG-4 Visual
    Format profile : Advanced Simple@L5
    Format settings, BVOP : 1
    Format settings, QPel : No
    Format settings, GMC : No warppoints
    Format settings, Matrix : Custom
    Codec ID : XVID
    Codec ID/Hint : XviD
    Duration : 1h 30mn
    Bit rate : 1 524 Kbps
    Width : 720 pixels
    Height : 304 pixels
    Display aspect ratio : 2.35:1
    Frame rate : 24.000 fps
    Color space : YUV
    Chroma subsampling : 4:2:0
    Bit depth : 8 bits
    Scan type : Progressive
    Compression mode : Lossy
    Bits/(Pixel*Frame) : 0.290
    Stream size : 983 MiB (70%)
    Writing library : XviD 64
    Audio
    ID : 1
    Format : AC-3
    Format/Info : Audio Coding 3
    Mode extension : CM (complete main)
    Format settings, Endianness : Big
    Codec ID : 2000
    Duration : 1h 30mn
    Bit rate mode : Constant
    Bit rate : 640 Kbps
    Channel(s) : 6 channels
    Channel positions : Front: L C R, Side: L R, LFE
    Sampling rate : 48.0 KHz
    Compression mode : Lossy
    Stream size : 413 MiB (29%)
    Alignment : Split accross interleaves
    Interleave, duration : 42 ms (1.00 video frame)
    Interleave, preload duratio : 500 ms

    Скриншот c названием фильма

    Скриншоты

    Скачать .torrent

    Скачать торрент-файл бесплатно и на максимальной скорости!

    Как скачивать? · Что такое торрент? · Рейтинг и ограничения

    !ВНИМАНИЕ!
    Сайт не распространяет и не хранит электронные версии произведений, а занимается лишь лишь предоставлением доступа к создаваемому пользователями каталогу ссылок на торрент-файлы, которые содержат только списки хеш-сумм, убедительная просьба с жалобами обращаться напрямую к пользователю. Файлы для обмена на трекере предоставлены пользователями сайта, и администрация не несёт ответственности за их содержание. Просьба не заливать файлы, защищенные авторскими правами, а также файлы нелегального содержания!


    _________________
    [Профиль] [ЛС]
    Показать сообщения:    
    Ответить на тему

    Текущее время: Сегодня, в 16:40

    Часовой пояс: GMT + 2



    Вы не можете начинать темы
    Вы не можете отвечать на сообщения
    Вы не можете редактировать свои сообщения
    Вы не можете удалять свои сообщения
    Вы не можете голосовать в опросах
    Вы не можете прикреплять файлы к сообщениям
    Вы не можете скачивать файлы