BitTorrentTracker PerecTracker.org
BitTorrentTracker PerecTracker.org
    
Регистрация  ·  Вход
 
 · 
Забыли пароль?

  • В активном поиске / How to Be Single (Кристиан Диттер / Christian Ditter) [2016, США, Мелодрама, комедия, BDRip, HD (720p)] DUB + Original + sub (rus, eng)

    Ответить на тему
     
    Автор Сообщение

    rechyn

    Создавать темы 10-Июн-2016 22:15

           

    [Цитировать]

    В активном поиске / How to Be Single
    «Welcome to the party»
    6.652 / 10 6.10 / 10
    -Год выпуска: 2016
    Страна: США
    Жанр: Мелодрама, комедия
    Продолжительность: 01:49:49
    Перевод: Дублированный (Лицензия)
    Оригинальная аудиодорожка: Есть
    Cубтитры: Русские форсированные, Русские, Английские
    Режиссёр: Кристиан Диттер
    Сценарий: Эбби Кон, Марк Силверштейн, Дэна Фокс
    Продюсер: Дэна Фокс, Джон Рикард, Дрю Бэрримор
    Оператор: Кристиан Рейн
    Композитор: Филь Эйслер
    Художник: Стив Сэклад, Леа Кацнелсон, Крис Хионис
    Монтаж: Тиа Нолан
    В ролях: Дакота Джонсон, Ребел Уилсон, Элисон Бри, Лесли Манн, Николас Браун, Джейсон Манцукас, Дэймон Уайанс мл., Колин Жост, Джейк Лэси, Андерс Холм
    Бюджет: $38 000 000
    Сборы в США: $46 843 513
    Сборы в мире: + $65 200 000 = $112 043 513
    Сборы в России: $2 313 257
    Мировая премьера: 8 января 2016
    Премьера (РФ): 11 февраля 2016, «Каро-Премьер»
    Описание: Устав от жизни со своим бойфрендом, Элис уходит от него, переезжает к старшей сестре Мэг, находит новую работу и обзаводится новой подругой Робин. Последняя оказывается страстной поклонницей ночных «отжигов» и пытается втянуть Элис в свою безумную жизнь, хотя та предпочитает чинные и продолжительные отношения пьяным знакомствам на вечеринках.-Качество исходника: Blu-Ray (HDClub)
    Качество: BDRip
    Тип: HD (720p)
    Контейнер: M4V
    Видео: H.264, 1280x536, 2.40:1, 3 500 Kbps, 23.976 fps
    Аудио 1: Русский/Дублированный (Лицензия), AAC / 2.0 / 157 Kbps / 48.0 KHz
    Аудио 2: Английский/Оригинальная дорожка , AAC / 2.0 / 156 Kbps / 48.0 KHz
    Аудио 3: Русский/Дублированный (Лицензия), AC-3 / 5.1 / 640 Kbps / 48.0 KHz
    Аудио 4: Английский/Оригинальная дорожка , AC-3 / 5.1 / 640 Kbps / 48.0 KHz
    Субтитры 1: Русские форсированные
    Субтитры 2: Русские полные
    Субтитры 3: Английские полные
    -

    iTunes Meta Tags

    Sort Name: How to Be Single
    XID: Apple:vendor_id:2016-462538
    contentID: 1082582175
    Copyright: © 2016 Warner Bros. Entertainment Inc. and Metro-Goldwyn-Mayer Pictures Inc. and RatPac-Dune Entertainment LLC. All Rights Reserved.
    Screenwriters: Эбби Кон, Марк Силверштейн, Дэна Фокс
    Producers: Дрю Бэрримор, Дэна Фокс, Нэнси Джавонен
    Director: Кристиан Диттер
    Cast: Дакота Джонсон, Ребел Уилсон, Элисон Бри, Лесли Манн, Николас Браун, Джейсон Манцукас, Дэймон Уайанс мл., Колин Жост, Джейк Лэси, Андерс Холм, Мария Иващенко, Анастасия Лапина, Дарья Фролова, Ольга Зубкова, Диомид Виноградов
    Studio: New Line
    Rating: 5
    Long Description: Устав от жизни со своим бойфрендом, Элис уходит от него, переезжает к старшей сестре Мэг, находит новую работу и обзаводится новой подругой Робин. Последняя оказывается страстной поклонницей ночных "отжигов" и пытается втянуть Элис в свою безумную жизнь, хотя та предпочитает чинные и продолжительные отношения пьяным знакомствам на вечеринках.
    Description: Устав от жизни со своим бойфрендом, Элис уходит от него, переезжает к старшей сестре Мэг, находит новую работу и обзаводится новой подругой Робин. Последняя оказывается страстной поклонницей ночных "отжигов" и пытается втянуть Элис в свою безумную жизнь, хотя та предпочитает чинные и продолжительные отношения пьяным знакомствам на вечеринках.
    Release Date: 2016-01-08T08:00:00Z
    Genre: Comedy
    Artist: Christian Ditter
    Name: How to Be Single

    MediaInfo

    General
    Complete name : /Users/imac/HandBrake/How to Be Single (720p HD).m4v
    Format : MPEG-4
    Codec ID : M4V
    File size : 3.91 GiB
    Duration : 1h 49mn
    Overall bit rate mode : Variable
    Overall bit rate : 5 103 Kbps
    Movie name : How to Be Single
    Performer : Christian Ditter
    Director : Кристиан Диттер
    Actor : Дакота Джонсон / Ребел Уилсон / Элисон Бри / Лесли Манн / Николас Браун / Джейсон Манцукас / Дэймон Уайанс мл. / Колин Жост / Джейк Лэси / Андерс Холм / Мария Иващенко / Анастасия Лапина / Дарья Фролова / Ольга Зубкова / Диомид Виноградов
    Screenplay by : Эбби Кон / Марк Силверштейн / Дэна Фокс
    Producer : Дрю Бэрримор / Дэна Фокс / Нэнси Джавонен
    Production studio : New Line
    Genre : Comedy
    ContentType : Short Film
    Description : Устав от жизни со своим бойфрендом, Элис уходит от него, переезжает к старшей сестре Мэг, находит новую работу и обзаводится новой подругой Робин. Последняя оказывается страстной поклонницей ночных "отжигов" и пытается втянуть Элис в свою безумную жизнь, хотя та предпочитает чинные и продолжительные отношения пьяным знакомствам на вечеринках.
    Recorded date : UTC 2016-01-08 08:00:00
    Encoded date : UTC 2016-06-10 14:42:43
    Tagged date : UTC 2016-06-10 14:43:46
    Copyright : © 2016 Warner Bros. Entertainment Inc. and Metro-Goldwyn-Mayer Pictures Inc. and RatPac-Dune Entertainment LLC. All Rights Reserved.
    Cover : Yes
    Rating : None
    Title/Sort : How to Be Single
    LongDescription : Устав от жизни со своим бойфрендом, Элис уходит от него, переезжает к старшей сестре Мэг, находит новую работу и обзаводится новой подругой Робин. Последняя оказывается страстной поклонницей ночных "отжигов" и пытается втянуть Элис в свою безумную жизнь, хотя та предпочитает чинные и продолжительные отношения пьяным знакомствам на вечеринках.
    HDVideo : Yes
    AppleStoreCatalogID : 1082582175
    Vendor : Apple:vendor_id:2016-462538
    ContentRating : mpaa|R|400|
    Video #1
    ID : 1
    Format : AVC
    Format/Info : Advanced Video Codec
    Format profile : High@L3.1
    Format settings, CABAC : No
    Format settings, ReFrames : 3 frames
    Codec ID : avc1
    Codec ID/Info : Advanced Video Coding
    Duration : 1h 49mn
    Source duration : 1h 49mn
    Bit rate : 3 500 Kbps
    Width : 1 280 pixels
    Height : 536 pixels
    Display aspect ratio : 2.40:1
    Frame rate mode : Variable
    Frame rate : 23.976 fps
    Minimum frame rate : 23.810 fps
    Maximum frame rate : 24.272 fps
    Color space : YUV
    Chroma subsampling : 4:2:0
    Bit depth : 8 bits
    Scan type : Progressive
    Bits/(Pixel*Frame) : 0.213
    Stream size : 2.68 GiB (69%)
    Source stream size : 2.68 GiB (69%)
    Title : Main Program
    Writing library : x264 core 142 r2479 dd79a61
    Encoding settings : cabac=0 / ref=3 / deblock=1:-3:-3 / analyse=0x3:0x113 / me=umh / subme=9 / psy=1 / psy_rd=1.00:0.15 / mixed_ref=1 / me_range=32 / chroma_me=1 / trellis=0 / 8x8dct=1 / cqm=0 / deadzone=21,11 / fast_pskip=0 / chroma_qp_offset=-2 / threads=36 / lookahead_threads=3 / sliced_threads=0 / nr=0 / decimate=0 / interlaced=0 / bluray_compat=0 / constrained_intra=0 / bframes=3 / b_pyramid=0 / b_adapt=2 / b_bias=0 / direct=1 / weightb=0 / open_gop=0 / weightp=0 / keyint=240 / keyint_min=24 / scenecut=40 / intra_refresh=0 / rc_lookahead=40 / rc=2pass / mbtree=1 / bitrate=3500 / ratetol=1.0 / qcomp=0.65 / qpmin=0 / qpmax=69 / qpstep=4 / cplxblur=20.0 / qblur=0.5 / vbv_maxrate=9500 / vbv_bufsize=9500 / nal_hrd=none / filler=0 / ip_ratio=1.40 / aq=1:1.10
    Language : English
    Encoded date : UTC 2016-06-10 14:42:43
    Tagged date : UTC 2016-06-10 14:42:50
    Color range : Limited
    Color primaries : BT.709
    Transfer characteristics : BT.709
    Matrix coefficients : BT.709
    Video #2
    ID : 10
    Format : JPEG
    Codec ID : jpeg
    Duration : 1h 49mn
    Bit rate mode : Variable
    Bit rate : 526 bps
    Width : 640 pixels
    Height : 268 pixels
    Display aspect ratio : 2.40:1
    Frame rate mode : Variable
    Frame rate : 0.002 fps
    Minimum frame rate : 0.001 fps
    Maximum frame rate : 0.003 fps
    Color space : YUV
    Chroma subsampling : 4:2:0
    Bit depth : 8 bits
    Compression mode : Lossy
    Bits/(Pixel*Frame) : 1.533
    Stream size : 353 KiB (0%)
    Title : Chapter Images
    Language : English
    Encoded date : UTC 2016-06-10 14:42:56
    Tagged date : UTC 2016-06-10 14:42:56
    Audio #1
    ID : 2
    Format : AAC
    Format/Info : Advanced Audio Codec
    Format profile : LC
    Codec ID : 40
    Duration : 1h 49mn
    Bit rate mode : Variable
    Bit rate : 157 Kbps
    Maximum bit rate : 278 Kbps
    Channel(s) : 2 channels
    Channel positions : Front: L R
    Sampling rate : 48.0 KHz
    Compression mode : Lossy
    Stream size : 123 MiB (3%)
    Title : Russian Stereo
    Language : Russian
    Encoded date : UTC 2016-06-10 14:42:43
    Tagged date : UTC 2016-06-10 14:42:53
    Audio #2
    ID : 3
    Format : AAC
    Format/Info : Advanced Audio Codec
    Format profile : LC
    Codec ID : 40
    Duration : 1h 49mn
    Bit rate mode : Variable
    Bit rate : 156 Kbps
    Maximum bit rate : 278 Kbps
    Channel(s) : 2 channels
    Channel positions : Front: L R
    Sampling rate : 48.0 KHz
    Compression mode : Lossy
    Stream size : 123 MiB (3%)
    Title : English Stereo
    Language : English
    Encoded date : UTC 2016-06-10 14:42:43
    Tagged date : UTC 2016-06-10 14:42:53
    Audio #3
    ID : 4
    Format : AC-3
    Format/Info : Audio Coding 3
    Mode extension : CM (complete main)
    Format settings, Endianness : Big
    Codec ID : ac-3
    Duration : 1h 49mn
    Bit rate mode : Constant
    Bit rate : 640 Kbps
    Channel(s) : 6 channels
    Channel positions : Front: L C R, Side: L R, LFE
    Sampling rate : 48.0 KHz
    Bit depth : 16 bits
    Compression mode : Lossy
    Stream size : 503 MiB (13%)
    Title : Russian DD 5.1
    Language : Russian
    Encoded date : UTC 2016-06-10 14:42:43
    Tagged date : UTC 2016-06-10 14:42:53
    Audio #4
    ID : 5
    Format : AC-3
    Format/Info : Audio Coding 3
    Mode extension : CM (complete main)
    Format settings, Endianness : Big
    Codec ID : ac-3
    Duration : 1h 49mn
    Bit rate mode : Constant
    Bit rate : 640 Kbps
    Channel(s) : 6 channels
    Channel positions : Front: L C R, Side: L R, LFE
    Sampling rate : 48.0 KHz
    Bit depth : 16 bits
    Compression mode : Lossy
    Stream size : 503 MiB (13%)
    Title : English DD 5.1
    Language : English
    Encoded date : UTC 2016-06-10 14:42:43
    Tagged date : UTC 2016-06-10 14:42:53
    Text #1
    ID : 6
    Format : Timed Text
    Muxing mode : sbtl
    Codec ID : tx3g
    Duration : 1h 45mn
    Bit rate mode : Variable
    Bit rate : 4 bps
    Stream size : 3.00 KiB (0%)
    Title : Russian forced
    Language : Russian
    Encoded date : UTC 2016-06-10 14:42:43
    Tagged date : UTC 2016-06-10 14:42:52
    Text #2
    ID : 7
    Format : Timed Text
    Muxing mode : sbtl
    Codec ID : tx3g
    Duration : 1h 45mn
    Bit rate mode : Variable
    Bit rate : 134 bps
    Stream size : 103 KiB (0%)
    Title : Russian full
    Language : Russian
    Encoded date : UTC 2016-06-10 14:42:43
    Tagged date : UTC 2016-06-10 14:42:53
    Text #3
    ID : 8
    Format : Timed Text
    Muxing mode : sbtl
    Codec ID : tx3g
    Duration : 1h 43mn
    Bit rate mode : Variable
    Bit rate : 102 bps
    Stream size : 77.1 KiB (0%)
    Title : English full
    Language : English
    Encoded date : UTC 2016-06-10 14:42:43
    Tagged date : UTC 2016-06-10 14:42:53
    Menu #1
    00:00:00.000 : 00:00:00.000
    00:10:18.576 : 00:10:18.493
    00:20:35.025 : 00:20:34.775
    00:31:17.876 : 00:31:17.751
    00:41:28.444 : 00:41:28.194
    00:52:07.082 : 00:52:06.832
    01:03:33.810 : 01:03:33.560
    01:16:21.452 : 01:16:21.160
    01:24:43.287 : 01:24:43.036
    01:32:11.901 : 01:32:11.818
    01:43:27.201 : 01:43:26.826
    Menu #2
    ID : 9
    Codec ID : text
    Duration : 1h 49mn
    Language : English
    Encoded date : UTC 2016-06-10 14:42:53
    Tagged date : UTC 2016-06-10 14:42:53
    Bit rate mode : CBR
    00:00:00.000 : 00:00:00.000
    00:10:18.576 : 00:10:18.493
    00:20:35.025 : 00:20:34.775
    00:31:17.876 : 00:31:17.751
    00:41:28.444 : 00:41:28.194
    00:52:07.082 : 00:52:06.832
    01:03:33.810 : 01:03:33.560
    01:16:21.452 : 01:16:21.160
    01:24:43.287 : 01:24:43.036
    01:32:11.901 : 01:32:11.818
    01:43:27.201 : 01:43:26.826

    x264 лог

    x264 [info]: frame I:1919  Avg QP:16.86  size:103970
    x264 [info]: frame P:60085 Avg QP:18.91  size: 31173
    x264 [info]: frame B:95975 Avg QP:20.25  size:  8428
    x264 [info]: consecutive B-frames:  4.3% 25.2% 56.8% 13.7%
    x264 [info]: mb I  I16..4:  3.7% 63.2% 33.1%
    x264 [info]: mb P  I16..4:  0.9%  5.0%  2.3%  P16..4: 50.4% 27.3% 11.6%  0.0%  0.0%    skip: 2.4%
    x264 [info]: mb B  I16..4:  0.1%  0.5%  0.2%  B16..8: 50.7% 11.3%  1.6%  direct: 4.0%  skip:31.6%  L0:40.8% L1:52.6% BI: 6.6%
    x264 [info]: 8x8 transform intra:62.0% inter:47.9%
    x264 [info]: coded y,uvDC,uvAC intra: 90.1% 86.7% 67.5% inter: 26.3% 26.0% 12.4%
    x264 [info]: i16 v,h,dc,p: 31% 14% 11% 44%
    x264 [info]: i8 v,h,dc,ddl,ddr,vr,hd,vl,hu: 13%  6%  4% 11% 15% 15% 13% 12% 10%
    x264 [info]: i4 v,h,dc,ddl,ddr,vr,hd,vl,hu: 12%  7%  3% 12% 17% 17% 13% 12%  9%
    x264 [info]: i8c dc,h,v,p: 45% 17% 23% 15%
    x264 [info]: ref P L0: 73.9% 15.7% 10.4%
    x264 [info]: ref B L0: 83.1% 16.9%
    x264 [info]: kb/s:3498.48

    Скриншоты

    -

    Релиз подготовлен для просмотра на Apple TV, iPad, iPhone, iPod Touch.
    Для просмотра данного релиза на компьютере с ОС Windows рекомендуется использовать VLC media player
    Скачать .torrent

    Скачать торрент-файл бесплатно и на максимальной скорости!

    Как скачивать? · Что такое торрент? · Рейтинг и ограничения

    !ВНИМАНИЕ!
    Сайт не распространяет и не хранит электронные версии произведений, а занимается лишь лишь предоставлением доступа к создаваемому пользователями каталогу ссылок на торрент-файлы, которые содержат только списки хеш-сумм, убедительная просьба с жалобами обращаться напрямую к пользователю. Файлы для обмена на трекере предоставлены пользователями сайта, и администрация не несёт ответственности за их содержание. Просьба не заливать файлы, защищенные авторскими правами, а также файлы нелегального содержания!


    _________________
    [Профиль] [ЛС]
    Показать сообщения:    
    Ответить на тему

    Текущее время: Сегодня, в 00:33

    Часовой пояс: GMT + 2



    Вы не можете начинать темы
    Вы не можете отвечать на сообщения
    Вы не можете редактировать свои сообщения
    Вы не можете удалять свои сообщения
    Вы не можете голосовать в опросах
    Вы не можете прикреплять файлы к сообщениям
    Вы не можете скачивать файлы