Register  ·  Log in
Forgot password?

  • Подношение / Вера Анны Уотерс / The Faith of Anna Waters / The Offering (Келвин Тонг / Kelvin Tong) [2016, Сингапур, США, ужасы, триллер, драма, детектив, WEB-DLRip] MVO (den904, DeadSno, Izanami, Agent Smith)

    Reply to topic
    Author Message


    Post 10-Jun-2016 23:15



    Подношение / Вера Анны Уотерс / The Faith of Anna Waters / The Offering
    Страна: Сингапур, США / Boku Films, PEP Pictures
    Жанр: ужасы, триллер, драма, детектив
    Год выпуска: 2016
    Продолжительность: 01:35:33
    Перевод: Любительский (многоголосый закадровый) den904, DeadSno, Izanami, Agent Smith
    Cубтитры: нет
    Режиссер: Келвин Тонг / Kelvin Tong
    В ролях: Мэттью Сеттл, Элизабет Райс, Памелин Чи, Элизабет Лазан, Джейми Онг, Адина Херц, Кхенг Хуа Тан, Адриан Пэнг, Колин Боргонон, Райанн Конди
    Описание: Когда Джейми узнает, что её сестра умерла при загадочных обстоятельствах, она уезжает в Сингапур в поисках истины. По прибытии она обнаруживает несколько смертельных случаев, схожих с тем, что случилось с её сестрой.
    Доп. информация: перевод [triumphant]
    Качество видео: WEB-DLRip
    Формат видео: AVI
    Видео: 720x304 (2.37:1), 23.976 fps, XviD build 73 ~1667 kbps avg, 0.32 bit/pixel
    Аудио: 48 kHz, AC3 Dolby Digital, 3/2 (L,C,R,l,r) + LFE ch, ~384 kbps


    Complete name : E:\Zona Downloads\The.Offering.2016.L.WEB-DLRip.avi
    Format : AVI
    Format/Info : Audio Video Interleave
    File size : 1.38 GiB
    Duration : 1h 35mn
    Overall bit rate : 2 061 Kbps
    Writing application : VirtualDubMod | || (build 2550/release)
    Writing library : VirtualDubMod build 2550/release
    ID : 0
    Format : MPEG-4 Visual
    Format profile : Advanced Simple@L5
    Format settings, BVOP : 2
    Format settings, QPel : No
    Format settings, GMC : No warppoints
    Format settings, Matrix : Default (H.263)
    Codec ID : XVID
    Codec ID/Hint : XviD
    Duration : 1h 35mn
    Bit rate : 1 667 Kbps
    Width : 720 pixels
    Height : 304 pixels
    Display aspect ratio : 2.35:1
    Frame rate : 23.976 fps
    Color space : YUV
    Chroma subsampling : 4:2:0
    Bit depth : 8 bits
    Scan type : Progressive
    Compression mode : Lossy
    Bits/(Pixel*Frame) : 0.318
    Stream size : 1.11 GiB (81%)
    Writing library : XviD 73
    ID : 1
    Format : AC-3
    Format/Info : Audio Coding 3
    Mode extension : CM (complete main)
    Format settings, Endianness : Big
    Codec ID : 2000
    Duration : 1h 35mn
    Bit rate mode : Constant
    Bit rate : 384 Kbps
    Channel(s) : 6 channels
    Channel positions : Front: L C R, Side: L R, LFE
    Sampling rate : 48.0 KHz
    Bit depth : 16 bits
    Compression mode : Lossy
    Stream size : 262 MiB (19%)
    Alignment : Split accross interleaves
    Interleave, duration : 42 ms (1.00 video frame)
    Interleave, preload duration : 500 ms

    Скриншот c названием фильма


    Download .torrent

    Download free and at maximum speed!

    How to Download? · What is a torrent? · Ratings and Limitations

    The site does not extend and does not store electronic(digital) versions of products, and only gives access to a reference catalogue created by users on torrent-files which contain only lists of the hash-sums, the earnest entreaty, with complaints(abuse) to access directly to the user. Files for an exchange on tracker are given by users of a site, and the administration does not bear the responsibility for their maintenance. The request to not fill in the files protected by copyrights, and also files of the illegal maintenance!

    [Profile] [PM]
    Display posts from previous:    
    Reply to topic

    The time now is: Today 16:59

    All times are GMT + 3 Hours

    You cannot post new topics in this forum
    You cannot reply to topics in this forum
    You cannot edit your posts in this forum
    You cannot delete your posts in this forum
    You cannot vote in polls in this forum
    You cannot attach files in this forum
    You cannot download files in this forum