BitTorrentTracker PerecTracker.org
BitTorrentTracker PerecTracker.org
    
Регистрация  ·  Вход
 
 · 
Забыли пароль?

  • Воздушный маршал / Non-Stop (Хауме Кольет-Серра) [2014, детектив, триллер, боевик, HDRip] трейлер DUB

    Ответить на тему
     
    Автор Сообщение

    Columb

    Создавать темы 15-Мар-2014 09:05

           

    [Цитировать]

    Воздушный маршал / Non-Stop-«Захват самолёта - это только начало»-
    Тип раздаваемого материала: Трейлер (дублированный)
    Оригинальное название: Non-Stop
    Год выпуска фильма: 2014
    Страна: Великобритания, Франция, США
    Студия: StudioCanal, Silver Pictures, Anton Capital Entertainment (ACE)
    Жанр: детектив, триллер, боевик
    Продолжительность: 00:02:27
    Перевод: Полное дублированние Dub (rus)
    Русские субтитры: нет-Режиссер: Хауме Кольет-Серра
    Сценарий: Джон В. Ричардсон, Кристофер Роач, Райан Энгль
    Продюсер: Алекс Хейнеман, Эндрю Рона, Джоэл Силвер
    Оператор: Флавио Мартинес Лабиано
    Композитор: Джон Оттмен
    Художник: Алек Хэммонд, Дэвид Суэйзи, Катрин Мари Томас
    Монтаж: Джим Мэй
    В ролях: Лиам Нисон, Джулианна Мур, Скут МакНэйри, Мишель Докери, Нэйт Паркер, Кори Столл, Лупита Нионго, Омар Метуолли, Джейсон Батлер Харнер, Лайнас Роуч
    Роли дублировали: Владимир Антоник, Прохор Чеховской
    --Бюджет: $50 000 000
    Возраст:
    Рейтинг MPAA: -Описание:
    Межконтинентальный авиарейс. Билл Маркс, воздушный маршал, который обеспечивает безопасность пассажиров, получает сообщения с угрозами от маньяка-террориста. Преступник просчитал все ходы и подставил под обвинение самого спецагента. Теперь Маркс — цель спецслужб США. Ему остается одно: вычислить и обезвредить преступника, спасти пассажиров и свою любовь, которую он обретает на краю гибели. До взрыва остаются считанные минуты…-Премьера (мир): 27 января 2014
    Премьера (США): 28 февраля 2014
    Премьера (РФ): 12 марта 2014, «Парадиз»
    Премьера (Украина): 13 марта 2014, «Аврора Фильм»
    Релиз на DVD: 13 мая 2014, «Парадиз / Активижен»-
    -Качество: HDRip
    Формат видео: MPEG-4
    Видео кодек: AVC
    Аудио кодек: AAC
    Видео: 3475 Кбит/сек, 1920*800 (2,40:1), в 23,976 кадра/сек, AVC (Baseline@L4.0) (1 Ref Frames)
    Аудио: 128 Кбит/сек, 48,0 КГц, 2 канала, AAC (LC)

    MediaInfo

    Общее
    Полное имя : D:\Разное\Закачки\Мои раздачи\Трейлер к фильму «Воздушный маршал»\kinopoisk.ru-Non-Stop-202130.mp4
    Формат : MPEG-4
    Профиль формата : Base Media
    Идентификатор кодека : isom
    Размер файла : 63,3 Мбайт
    Продолжительность : 2 м. 27 с.
    Режим общего битрейта : Переменный
    Общий поток : 3607 Кбит/сек
    Дата кодирования : UTC 2014-03-11 11:30:48
    Дата пометки : UTC 2014-03-11 11:30:48
    Программа кодирования : Lavf51.12.1
    Видео
    Идентификатор : 1
    Формат : AVC
    Формат/Информация : Advanced Video Codec
    Профиль формата : Baseline@L4.0
    Параметр CABAC формата : Нет
    Параметр ReFrames формата : 1 кадр
    Параметр GOP формата : M=1, N=12
    Идентификатор кодека : avc1
    Идентификатор кодека/Информация : Advanced Video Coding
    Продолжительность : 2 м. 27 с.
    Битрейт : 3475 Кбит/сек
    Ширина : 1920 пикселей
    Высота : 800 пикселей
    Соотношение сторон : 2,40:1
    Режим частоты кадров : Постоянный
    Частота кадров : 23,976 кадра/сек
    Цветовое пространство : YUV
    Субдискретизация насыщенности : 4:2:0
    Битовая глубина : 8 бит
    Тип развёртки : Прогрессивная
    Бит/(Пиксели*Кадры) : 0.094
    Размер потока : 61,0 Мбайт (96%)
    Дата кодирования : UTC 2014-03-11 11:30:48
    Дата пометки : UTC 2014-03-11 11:30:48
    Аудио
    Идентификатор : 2
    Формат : AAC
    Формат/Информация : Advanced Audio Codec
    Профиль формата : LC
    Идентификатор кодека : 40
    Продолжительность : 2 м. 27 с.
    Вид битрейта : Переменный
    Битрейт : 128 Кбит/сек
    Каналы : 2 канала
    Расположение каналов : Front: L R
    Частота : 48,0 КГц
    Метод сжатия : С потерями
    Размер потока : 2,24 Мбайт (4%)
    Дата кодирования : UTC 2014-03-11 11:30:48
    Дата пометки : UTC 2014-03-11 11:30:48
    -

    Скриншоты




    -

    Знаете ли вы, что...

    - Героя Лиама Нисона зовут Билл Маркс. В фильме «Заложница» (2007) его персонажа зовут Брайан Миллс. У обоих героев одни и те же инициалы.
    - Часы, которые носит герой Лиама Нисона — Casio WV58A-1AV Wave Ceptor.
    - Самолет в фильме — Боинг 767-300.
    - Около 200 человек массовки принимали участие в съемках.
    - Во время выпуска новостей репортер говорит, что Маркс родился не в Америке, а в Северной Ирландии. Исполняющий роль Маркса Лиам Нисон родился в Северной Ирландии.
    - Когда самолет находится на высоте 8000 футов, Билл (вопреки законам физики) пролетает через салон самолета, хватая пистолет и стреляя в процессе полета, однако его цель при этом остается совершенно неподвижной.
    - Во всех сценах у истребителей включен форсаж. Ни одному истребителю нет необходимости включать форсаж, чтобы лететь со скоростью 0,8 Маха рядом с коммерческим авиалайнером. Также в сцене буксировки самолета включен фонарь у носового колеса, который бы просто ослепил водителя буксира.
    - Когда самолет выравнивается после резкого снижения до 8000 футов, в салоне самолета невесомость. Такой эффект возможен только в том случае, когда самолет начинает резко терять высоту после быстрого подъема.
    - Билл говорит, что подозреваемый, который совершал звонки, будет отправлен в федеральную тюрьму по прибытию в Лондон. В Великобритании нет «федеральных» правоохранительных органов и его бы встретила столичная полиция и служба пограничного контроля Великобритании.
    - Когда Билл курит в ванной первый раз, можно заметить, что он курит сигареты несуществующей марки. Когда позже в фильме он опять курит, видно, что это Marlboro.
    - В начале фильма Джен и Билл заказывают напитки, сидя в самолете. Стюардесса приносит джин с тоником и воду и ставит их в подстаканники. В следующем кадре напитков уже нет.
    - В начале фильма, когда Билл заходит в кабину самолета, можно заметить рычаги от четырех двигателей. Однако, когда самолет показывают снаружи, видно, что двигателей всего два.
    - Федеральные агенты не проходят через ту же процедуру досмотра в аэропорту, что и гражданские, как это показывается в фильме.
    - В воздушном пространстве Исландии самолет не сопровождался бы истребителями Eurofighter Typhoon. Эти истребители были заменены на американские F-15s.
    -
    Скачать .torrent

    Скачать торрент-файл бесплатно и на максимальной скорости!

    Как скачивать? · Что такое торрент? · Рейтинг и ограничения

    !ВНИМАНИЕ!
    Сайт не распространяет и не хранит электронные версии произведений, а занимается лишь лишь предоставлением доступа к создаваемому пользователями каталогу ссылок на торрент-файлы, которые содержат только списки хеш-сумм, убедительная просьба с жалобами обращаться напрямую к пользователю. Файлы для обмена на трекере предоставлены пользователями сайта, и администрация не несёт ответственности за их содержание. Просьба не заливать файлы, защищенные авторскими правами, а также файлы нелегального содержания!

    [Профиль] [ЛС]
    Показать сообщения:    
    Ответить на тему

    Текущее время: Сегодня, в 18:52

    Часовой пояс: GMT + 2



    Вы не можете начинать темы
    Вы не можете отвечать на сообщения
    Вы не можете редактировать свои сообщения
    Вы не можете удалять свои сообщения
    Вы не можете голосовать в опросах
    Вы не можете прикреплять файлы к сообщениям
    Вы не можете скачивать файлы