BitTorrentTracker PerecTracker.org
BitTorrentTracker PerecTracker.org
    
Регистрация  ·  Вход
 
 · 
Забыли пароль?

  • Образцовый самец 2 / Zoolander 2 (Бен Стиллер / Ben Stiller) [2016, США, комедия, BDRip 720p] Dub (iTunes) + Sub Rus, Eng + Original Eng

    Ответить на тему
     
    Автор Сообщение

    Light

    Создавать темы 10-Июн-2016 18:03

           

    [Цитировать]

    -Образцовый самец 2 / Zoolander 2-Страна: США
    Жанр: комедия
    Год выпуска: 2016
    Продолжительность: 01:41:47-Перевод: Профессиональный (дублированный) iTunes
    Cубтитры: русские, английские
    Оригинальная аудиодорожка: английский-Режиссер: Бен Стиллер / Ben Stiller
    В ролях: Бен Стиллер (Derek), Оуэн Уилсон (Hansel), Пенелопа Крус (Valentina Valencia), Кристен Уиг (Alexanya Atoz), Уилл Феррелл (Jacobim Mugatu), Бенедикт Камбербэтч (All), Джастин Бибер (Justin Bieber), Джон Дэйли (Agent Filippo), Кэти Курик (Katie Couric), Эми Стиллер (Mom Tourist), Шарлотта Таунсенд (Girl Tourist), Кристин Тейлор (Matilda)-Описание: Триумфальное возвращение на подиумы когда-то топовых, а ныне слегка потрепанных мужчин-моделей Дерека Зуландера и Ханселя в комедии о мире, где для обретения всеобщей популярности достаточно одного селфи.-Сэмпл-Тип релиза: BDRip 720p
    Контейнер: MKV
    Видео: MPEG-4 AVC Video 4275 kbps 1280x536p / 23,976 fps / High Profile 4.1
    Аудио: Russian / Dolby Digital Audio / 5.1 / 48 kHz / 384 kbps
    Аудио 2: English / DTS Audio 5.1 / 48 kHz / 1509 kbps
    Формат субтитров: softsub (SRT)

    Видеоряд от CtrlHD

    .GENERAL iNFORMATiONRUNTiME.......: 1h:41m:48sSiZE..........: 4.11GBViDEO.CODEC...: x264, CRF17, L4.1FRAMERATE.....: 23.976fpsBiTRATE.......: 4275KbpsRESOLUTiON....: 1280x536 (OAR)AUDiO.........: English DTS @ 1510KbpsSUBTiTLES.....: Eng,Eng-SDH,Fre,Por,SpaSUBS.FORMAT...: UTF-8 srtCHAPTERS......: Numbered like on Blu-raySOURCE........: Zoolander 2 2016 1080p Blu-ray AVC DTS-HD MA 7.1-MTeamiMDB.RATiNG...: 4.9/10 (19,270 votes)iMDB.LiNK.....:
    .NOTESFixed bottom dirty pixels with overlay.
    Remove the ads/tables of image hosts with this GreaseMonkey script:Show Just Image 3http://userscripts.org/scripts/show/109890http://userscripts-mirror.org/scripts/show/109890
    .LOGx264 [info]: frame I:1481 Avg QP:12.88 size: 94146x264 [info]: frame P:33568 Avg QP:14.93 size: 40110x264 [info]: frame B:111386 Avg QP:16.73 size: 15951x264 [info]: encoded 146435 frames, 8.40 fps, 4273.46 kb/s, duration 4:50:36.40

    MI

    GeneralUnique ID : 239431510388931872309398655623672171240 (0xB420D4E061AD4690A3E61EF674650AE8)Complete name : S:\На хранении\Образцовый самец 2 (2016. Zoolander 2).mkvFormat : MatroskaFormat version : Version 4 / Version 2File size : 4.39 GiBDuration : 1h 41mnOverall bit rate : 6 170 KbpsMovie name : Release for RuTrackerEncoded date : UTC 2016-06-09 09:01:08Writing application : mkvmerge v9.0.1 ('Obstacles') 64bitWriting library : libebml v1.3.3 + libmatroska v1.4.4Cover : YesAttachments : cover.jpg
    VideoID : 1Format : AVCFormat/Info : Advanced Video CodecFormat profile : High@L4.1Format settings, CABAC : YesFormat settings, ReFrames : 12 framesCodec ID : V_MPEG4/ISO/AVCDuration : 1h 41mnBit rate : 4 273 KbpsWidth : 1 280 pixelsHeight : 536 pixelsDisplay aspect ratio : 2.40:1Frame rate mode : ConstantFrame rate : 23.976 (24000/1001) fpsColor space : YUVChroma subsampling : 4:2:0Bit depth : 8 bitsScan type : ProgressiveBits/(Pixel*Frame) : 0.260Stream size : 3.04 GiB (69%)Title : Zoolander.2.2016.720p.BluRay.x264-CtrlHDWriting library : x264 core 148 r2665kMod a01e339Encoding settings : cabac=1 / ref=12 / deblock=1:-3:-3 / analyse=0x3:0x133 / me=umh / subme=10 / psy=1 / fade_compensate=0.00 / psy_rd=1.00:0.00 / mixed_ref=1 / me_range=16 / chroma_me=1 / trellis=2 / 8x8dct=1 / cqm=0 / deadzone=21,11 / fast_pskip=0 / chroma_qp_offset=-2 / threads=6 / lookahead_threads=1 / sliced_threads=0 / nr=0 / decimate=0 / interlaced=0 / bluray_compat=0 / constrained_intra=0 / fgo=0 / bframes=8 / b_pyramid=2 / b_adapt=2 / b_bias=0 / direct=3 / weightb=1 / open_gop=0 / weightp=2 / keyint=250 / keyint_min=23 / scenecut=40 / intra_refresh=0 / rc=crf / mbtree=0 / crf=17.0000 / qcomp=0.80 / qpmin=0 / qpmax=69 / qpstep=4 / ip_ratio=1.30 / pb_ratio=1.20 / aq=1:1.00Language : EnglishDefault : YesForced : No
    Audio #1ID : 2Format : AC-3Format/Info : Audio Coding 3Mode extension : CM (complete main)Format settings, Endianness : BigCodec ID : A_AC3Duration : 1h 41mnBit rate mode : ConstantBit rate : 384 KbpsChannel(s) : 6 channelsChannel positions : Front: L C R, Side: L R, LFESampling rate : 48.0 KHzFrame rate : 31.250 fps (1536 spf)Compression mode : LossyStream size : 280 MiB (6%)Title : ДубляжLanguage : RussianDefault : YesForced : No
    Audio #2ID : 3Format : DTSFormat/Info : Digital Theater SystemsMode : 16Format settings, Endianness : BigCodec ID : A_DTSDuration : 1h 41mnBit rate mode : ConstantBit rate : 1 509 KbpsChannel(s) : 6 channelsChannel positions : Front: L C R, Side: L R, LFESampling rate : 48.0 KHzFrame rate : 93.750 fps (512 spf)Bit depth : 24 bitsCompression mode : LossyStream size : 1.07 GiB (24%)Language : EnglishDefault : NoForced : No
    Text #1ID : 4Format : UTF-8Codec ID : S_TEXT/UTF8Codec ID/Info : UTF-8 Plain TextDuration : 1h 34mnBit rate : 1 bpsCount of elements : 30Stream size : 1.21 KiB (0%)Title : forcedLanguage : RussianDefault : YesForced : No
    Text #2ID : 5Format : UTF-8Codec ID : S_TEXT/UTF8Codec ID/Info : UTF-8 Plain TextDuration : 1h 34mnBit rate : 104 bpsCount of elements : 1292Stream size : 72.5 KiB (0%)Language : RussianDefault : NoForced : No
    Text #3ID : 6Format : UTF-8Codec ID : S_TEXT/UTF8Codec ID/Info : UTF-8 Plain TextDuration : 1h 33mnBit rate : 64 bpsCount of elements : 1383Stream size : 44.2 KiB (0%)Language : EnglishDefault : NoForced : No
    Text #4ID : 7Format : UTF-8Codec ID : S_TEXT/UTF8Codec ID/Info : UTF-8 Plain TextDuration : 1h 34mnBit rate : 68 bpsCount of elements : 1686Stream size : 47.9 KiB (0%)Title : SDHLanguage : EnglishDefault : NoForced : No
    Menu00:00:00.000 : en:Chapter 100:07:40.877 : en:Chapter 200:12:25.370 : en:Chapter 300:15:26.217 : en:Chapter 400:22:49.868 : en:Chapter 500:28:41.136 : en:Chapter 600:31:07.074 : en:Chapter 700:36:42.617 : en:Chapter 800:42:54.614 : en:Chapter 900:48:54.974 : en:Chapter 1000:56:57.039 : en:Chapter 1101:07:00.225 : en:Chapter 1201:14:33.010 : en:Chapter 1301:18:17.067 : en:Chapter 1401:23:42.226 : en:Chapter 1501:33:15.548 : en:Chapter 16
    Скриншоты

    Зеркало


    Скачать .torrent

    Скачать торрент-файл бесплатно и на максимальной скорости!

    Как скачивать? · Что такое торрент? · Рейтинг и ограничения

    !ВНИМАНИЕ!
    Сайт не распространяет и не хранит электронные версии произведений, а занимается лишь лишь предоставлением доступа к создаваемому пользователями каталогу ссылок на торрент-файлы, которые содержат только списки хеш-сумм, убедительная просьба с жалобами обращаться напрямую к пользователю. Файлы для обмена на трекере предоставлены пользователями сайта, и администрация не несёт ответственности за их содержание. Просьба не заливать файлы, защищенные авторскими правами, а также файлы нелегального содержания!


    _________________
    [Профиль] [ЛС]
    Показать сообщения:    
    Ответить на тему

    Текущее время: Сегодня, в 11:58

    Часовой пояс: GMT + 2



    Вы не можете начинать темы
    Вы не можете отвечать на сообщения
    Вы не можете редактировать свои сообщения
    Вы не можете удалять свои сообщения
    Вы не можете голосовать в опросах
    Вы не можете прикреплять файлы к сообщениям
    Вы не можете скачивать файлы