BitTorrentTracker PerecTracker.org
BitTorrentTracker PerecTracker.org
    
Регистрация  ·  Вход
 
 · 
Забыли пароль?

  • Образцовый самец 2 / Zoolander 2 (Бен Стиллер / Ben Stiller) [2016, США, комедия, BDRip 1080p] Dub (iTunes) + Sub Rus, Eng + Original Eng

    Ответить на тему
     
    Автор Сообщение

    Light

    Создавать темы 10-Июн-2016 18:03

           

    [Цитировать]

    -Образцовый самец 2 / Zoolander 2-Страна: США
    Жанр: комедия
    Год выпуска: 2016
    Продолжительность: 01:41:47-Перевод: Профессиональный (дублированный) iTunes
    Cубтитры: русские, английские
    Оригинальная аудиодорожка: английский-Режиссер: Бен Стиллер / Ben Stiller
    В ролях: Бен Стиллер (Derek), Оуэн Уилсон (Hansel), Пенелопа Крус (Valentina Valencia), Кристен Уиг (Alexanya Atoz), Уилл Феррелл (Jacobim Mugatu), Бенедикт Камбербэтч (All), Джастин Бибер (Justin Bieber), Джон Дэйли (Agent Filippo), Кэти Курик (Katie Couric), Эми Стиллер (Mom Tourist), Шарлотта Таунсенд (Girl Tourist), Кристин Тейлор (Matilda)-Описание: Триумфальное возвращение на подиумы когда-то топовых, а ныне слегка потрепанных мужчин-моделей Дерека Зуландера и Ханселя в комедии о мире, где для обретения всеобщей популярности достаточно одного селфи.-Сэмпл-Тип релиза: BDRip 1080p
    Контейнер: MKV
    Видео: MPEG-4 AVC Video 11700 kbps 1920 x 804 p / 23,976 fps / High Profile 4.1
    Аудио: Russian / Dolby Digital Audio / 5.1 / 48 kHz / 384 kbps
    Аудио 2: English / DTS Audio 5.1 / 48 kHz / 1509 kbps
    Формат субтитров: softsub (SRT)

    Видеоряд от HiFi

    Source: Zoolander 2 2016 1080p Blu-ray AVC DTS-HD MA 7.1-MTeam-----------------------------------------------------------------------------------------------------------------------------------------------------Release name: Zoolander.2.2016.1080p.BluRay.DTS.x264-HiFiSize: 9.39 GB-----------------------------------------------------------------------------------------------------------------------------------------------------Video: 11.7 Mbps / 1920 x 804 / 23.976 fpsAudio: DTS / 5.1 Ch / 1509 KbpsSubtitles: English, English SDH, FrenchChapters: NumberedCommentary: None-----------------------------------------------------------------------------------------------------------------------------------------------------Source______________Encode______________Scene







    MI

    GeneralUnique ID : 233667154821500885598284116841265951533 (0xAFCAA8345DD441B2AA988271A514F32D)Complete name : S:\На хранении\Образцовый самец 2 (2016. Zoolander 2) 1080p.mkvFormat : MatroskaFormat version : Version 4 / Version 2File size : 9.67 GiBDuration : 1h 41mnOverall bit rate : 13.6 MbpsMovie name : Release for RuTrackerEncoded date : UTC 2016-06-09 09:07:51Writing application : mkvmerge v9.0.1 ('Obstacles') 64bitWriting library : libebml v1.3.3 + libmatroska v1.4.4Cover : YesAttachments : cover.jpg
    VideoID : 1Format : AVCFormat/Info : Advanced Video CodecFormat profile : High@L4.1Format settings, CABAC : YesFormat settings, ReFrames : 5 framesCodec ID : V_MPEG4/ISO/AVCDuration : 1h 41mnBit rate : 11.7 MbpsWidth : 1 920 pixelsHeight : 804 pixelsDisplay aspect ratio : 2.40:1Frame rate mode : ConstantFrame rate : 23.976 (24000/1001) fpsColor space : YUVChroma subsampling : 4:2:0Bit depth : 8 bitsScan type : ProgressiveBits/(Pixel*Frame) : 0.316Stream size : 8.32 GiB (86%)Title : Zoolander.2.2016.1080p.BluRay.DTS.x264-HiFiWriting library : x264 core 148 r2692 64f4e24Encoding settings : cabac=1 / ref=5 / deblock=1:-3:-3 / analyse=0x3:0x133 / me=umh / subme=11 / psy=1 / psy_rd=1.05:0.00 / mixed_ref=1 / me_range=48 / chroma_me=1 / trellis=2 / 8x8dct=1 / cqm=0 / deadzone=21,11 / fast_pskip=0 / chroma_qp_offset=-2 / threads=6 / lookahead_threads=1 / sliced_threads=0 / nr=0 / decimate=0 / interlaced=0 / bluray_compat=0 / constrained_intra=0 / bframes=12 / b_pyramid=2 / b_adapt=2 / b_bias=0 / direct=3 / weightb=1 / open_gop=0 / weightp=2 / keyint=250 / keyint_min=23 / scenecut=40 / intra_refresh=0 / rc_lookahead=60 / rc=crf / mbtree=0 / crf=15.6 / qcomp=0.65 / qpmin=0 / qpmax=69 / qpstep=4 / vbv_maxrate=50000 / vbv_bufsize=625000 / crf_max=0.0 / nal_hrd=none / filler=0 / ip_ratio=1.40 / pb_ratio=1.30 / aq=3:0.60Language : EnglishDefault : YesForced : No
    Audio #1ID : 2Format : AC-3Format/Info : Audio Coding 3Mode extension : CM (complete main)Format settings, Endianness : BigCodec ID : A_AC3Duration : 1h 41mnBit rate mode : ConstantBit rate : 384 KbpsChannel(s) : 6 channelsChannel positions : Front: L C R, Side: L R, LFESampling rate : 48.0 KHzFrame rate : 31.250 fps (1536 spf)Compression mode : LossyStream size : 280 MiB (3%)Title : ДубляжLanguage : RussianDefault : YesForced : No
    Audio #2ID : 3Format : DTSFormat/Info : Digital Theater SystemsMode : 16Format settings, Endianness : BigCodec ID : A_DTSDuration : 1h 41mnBit rate mode : ConstantBit rate : 1 509 KbpsChannel(s) : 6 channelsChannel positions : Front: L C R, Side: L R, LFESampling rate : 48.0 KHzFrame rate : 93.750 fps (512 spf)Bit depth : 24 bitsCompression mode : LossyStream size : 1.07 GiB (11%)Language : EnglishDefault : NoForced : No
    Text #1ID : 4Format : UTF-8Codec ID : S_TEXT/UTF8Codec ID/Info : UTF-8 Plain TextDuration : 1h 34mnBit rate : 1 bpsCount of elements : 30Stream size : 1.21 KiB (0%)Title : forcedLanguage : RussianDefault : YesForced : No
    Text #2ID : 5Format : UTF-8Codec ID : S_TEXT/UTF8Codec ID/Info : UTF-8 Plain TextDuration : 1h 34mnBit rate : 104 bpsCount of elements : 1292Stream size : 72.5 KiB (0%)Language : RussianDefault : NoForced : No
    Text #3ID : 6Format : UTF-8Codec ID : S_TEXT/UTF8Codec ID/Info : UTF-8 Plain TextDuration : 1h 33mnBit rate : 64 bpsCount of elements : 1383Stream size : 44.2 KiB (0%)Language : EnglishDefault : NoForced : No
    Text #4ID : 7Format : UTF-8Codec ID : S_TEXT/UTF8Codec ID/Info : UTF-8 Plain TextDuration : 1h 34mnBit rate : 68 bpsCount of elements : 1686Stream size : 47.9 KiB (0%)Title : SDHLanguage : EnglishDefault : NoForced : No
    Menu00:00:00.000 : en:Chapter 100:07:40.877 : en:Chapter 200:12:25.370 : en:Chapter 300:15:26.217 : en:Chapter 400:22:49.868 : en:Chapter 500:28:41.136 : en:Chapter 600:31:07.074 : en:Chapter 700:36:42.617 : en:Chapter 800:42:54.614 : en:Chapter 900:48:54.974 : en:Chapter 1000:56:57.039 : en:Chapter 1101:07:00.225 : en:Chapter 1201:14:33.010 : en:Chapter 1301:18:17.067 : en:Chapter 1401:23:42.226 : en:Chapter 1501:33:15.548 : en:Chapter 16
    Скриншоты

    Зеркало


    Скачать .torrent

    Скачать торрент-файл бесплатно и на максимальной скорости!

    Как скачивать? · Что такое торрент? · Рейтинг и ограничения

    !ВНИМАНИЕ!
    Сайт не распространяет и не хранит электронные версии произведений, а занимается лишь лишь предоставлением доступа к создаваемому пользователями каталогу ссылок на торрент-файлы, которые содержат только списки хеш-сумм, убедительная просьба с жалобами обращаться напрямую к пользователю. Файлы для обмена на трекере предоставлены пользователями сайта, и администрация не несёт ответственности за их содержание. Просьба не заливать файлы, защищенные авторскими правами, а также файлы нелегального содержания!


    _________________
    [Профиль] [ЛС]
    Показать сообщения:    
    Ответить на тему

    Текущее время: Сегодня, в 08:58

    Часовой пояс: GMT + 2



    Вы не можете начинать темы
    Вы не можете отвечать на сообщения
    Вы не можете редактировать свои сообщения
    Вы не можете удалять свои сообщения
    Вы не можете голосовать в опросах
    Вы не можете прикреплять файлы к сообщениям
    Вы не можете скачивать файлы