Register  ·  Log in
Forgot password?

  • Кровавый апельсин / Blood Orange (Тоби Тобиаш / Toby Tobias) [2016, Великобритания, Испания, Триллер, WEB-DLRip] MVO (Paradox)

    Reply to topic
    Author Message


    Post 10-Jun-2016 19:03



    Кровавый апельсин / Blood Orange
    Страна: Великобритания, Испания
    Жанр: Триллер
    Год выпуска: 2016
    Продолжительность: 01:23:30
    Перевод: Любительский (многоголосый закадровый) Paradox
    Cубтитры: нет
    Режиссер: Тоби Тобиаш / Toby Tobias
    В ролях: Бен Лэмб, Кейси Барнфилд, Антонио Магро, Игги Поп...
    Описание: Триллер «Кровавый апельсин» с Игги Попом в главной роли. Певец сыграет стареющую рок-звезду, который проживает на уединённой вилле в Испании, со своей молодой женой Изабелль. Однажды их уют нарушает появление мужчины по имени Лукас. Он был некогда возлюбленным Изабелль и теперь утверждает, что она украла у него наследство и требует вернуть.
    Доп. информация: Роли озвучивали: Варвара Чабан, Владимир Рыбальченко, Даниил Эльдаров, Александр Зачиняев
    Качество видео: WEB-DLRip
    Формат видео: AVI
    Видео: 640x272 (2.35:1), 24.000 fps, XviD build 73 ~1110 kbps avg, 0.27 bit/pixel
    Аудио: 48 kHz, MPEG Layer 3, 2 ch, ~128.00 kbps avg


    Complete name : E:\Zona Downloads\Krovavyj.apel'sin.2016.WEB-DLRip.avi
    Format : AVI
    Format/Info : Audio Video Interleave
    File size : 745 MiB
    Duration : 1h 23mn
    Overall bit rate : 1 248 Kbps
    Writing application : VirtualDubMod (build 2550/release)
    Writing library : VirtualDubMod build 2550/release
    ID : 0
    Format : MPEG-4 Visual
    Format profile : Advanced Simple@L5
    Format settings, BVOP : 1
    Format settings, QPel : No
    Format settings, GMC : No warppoints
    Format settings, Matrix : Default (MPEG)
    Codec ID : DX50
    Codec ID/Hint : DivX 5
    Duration : 1h 23mn
    Bit rate : 1 110 Kbps
    Width : 640 pixels
    Height : 272 pixels
    Display aspect ratio : 2.35:1
    Frame rate : 24.000 fps
    Color space : YUV
    Chroma subsampling : 4:2:0
    Bit depth : 8 bits
    Scan type : Progressive
    Compression mode : Lossy
    Bits/(Pixel*Frame) : 0.266
    Stream size : 663 MiB (89%)
    Writing library : XviD 73
    ID : 1
    Format : MPEG Audio
    Format version : Version 1
    Format profile : Layer 3
    Codec ID : 55
    Codec ID/Hint : MP3
    Duration : 1h 23mn
    Bit rate mode : Constant
    Bit rate : 128 Kbps
    Channel(s) : 2 channels
    Sampling rate : 48.0 KHz
    Compression mode : Lossy
    Stream size : 76.5 MiB (10%)
    Alignment : Aligned on interleaves
    Interleave, duration : 42 ms (1.00 video frame)
    Interleave, preload duration : 504 ms
    Writing library : LAME3.99r
    Encoding settings : -m s -V 4 -q 2 -lowpass 17 -b 128

    Скриншот c названием фильма


    Download .torrent

    Download free and at maximum speed!

    How to Download? · What is a torrent? · Ratings and Limitations

    The site does not extend and does not store electronic(digital) versions of products, and only gives access to a reference catalogue created by users on torrent-files which contain only lists of the hash-sums, the earnest entreaty, with complaints(abuse) to access directly to the user. Files for an exchange on tracker are given by users of a site, and the administration does not bear the responsibility for their maintenance. The request to not fill in the files protected by copyrights, and also files of the illegal maintenance!

    [Profile] [PM]
    Display posts from previous:    
    Reply to topic

    The time now is: Today 03:43

    All times are GMT + 3 Hours

    You cannot post new topics in this forum
    You cannot reply to topics in this forum
    You cannot edit your posts in this forum
    You cannot delete your posts in this forum
    You cannot vote in polls in this forum
    You cannot attach files in this forum
    You cannot download files in this forum