BitTorrentTracker PerecTracker.org
BitTorrentTracker PerecTracker.org
    
Регистрация  ·  Вход
 
 · 
Забыли пароль?

  • Колония Дигнидад / Colonia / Colonia Dignidad / Es gibt kein Zurück (Флориан Галленбергер / Florian Gallenberger) [2015, Германия, Люксембург, Франция, мелодрама, психологическая драма, триллер, HDRip] Dub (iTunes)

    Ответить на тему
     
    Автор Сообщение

    Light

    Создавать темы 10-Июн-2016 01:18

           

    [Цитировать]

    Колония Дигнидад / Colonia / Colonia Dignidad / Es gibt kein Zurück
    Страна: Германия, Люксембург, Франция
    Жанр: Мелодрама, психологическая драма, триллер
    Год выпуска: 2015
    Продолжительность: 01:49:54
    Перевод: Профессиональный (дублированный) iTunes
    Cубтитры: отсутствует
    Оригинальная аудиодорожка: нет
    Режиссёр: Флориан Галленбергер / Florian Gallenberger
    В ролях: Эмма Уотсон, Даниэль Брюль, Микаель Нюквист, Риченда Кэри, Вики Крипс, Джулиан Овенден, Мартин Вуттке, Аугуст Цирнер, Сесар Бордон, Штефан Мерки, Катарина Мюллер-Элмау, Пауль Хервиг, Жилль Содер
    Описание: Молодая влюблённая немецкая пара - стюардесса Лена и журналист Даниэль, оказываются в эпицентре кровавого военного переворота в Чили. Даниэля арестовывают, подвергают немыслимым пыткам в тайной полиции и отправляют в колонию "Дигнидад", немецкое поселение выдающее себя за благотворительное религиозное общество, а на самом деле концлагерь и гнездо нацистов – беглецов из Третьего рейха... Туда же, добровольно, под видом послушницы, готовящейся стать монашкой, отправляется и Лена, чтоб попытаться спасти любимого... В "Дигнидад" попасть не трудно, но обратной дороги нет…
    В основе фильма реальные события 1973 года.

    Качество видео: HDRip
    Формат видео: AVI
    Video: XviD 73 MPEG-4, 720x304 (2.35:1) 23.976 fps, ~1449 kbps avg, 0.276 bit/pixel
    Аudio: AC-3 Dolby Digital, CBR 384 kbps 6 ch (Front: L C R, Side: L R, LFE) 48.0 KHz

    MediaInfo

    ОбщееПолное имя : S:\Colonia_Dignidad_2015_HDRip_[perectracker.org].aviФормат : AVIФормат/Информация : Audio Video InterleaveРазмер файла : 1,41 ГбайтПродолжительность : 1 ч. 49 м.Общий поток : 1840 Кбит/сек
    ВидеоИдентификатор : 0Формат : MPEG-4 VisualПрофиль формата : Advanced Simple@L5Параметр BVOP формата : 1Параметр QPel формата : НетПараметр GMC формата : Без точки переходаПараметр матрицы формата : ВыборочнаяИдентификатор кодека : XVIDИдентификатор кодека/Подсказка : XviDПродолжительность : 1 ч. 49 м.Битрейт : 1449 Кбит/секШирина : 720 пикселейВысота : 304 пикселяСоотношение сторон : 2,35:1Частота кадров : 23,976 кадра/секЦветовое пространство : YUVСубдискретизация насыщенности : 4:2:0Битовая глубина : 8 битТип развёртки : ПрогрессивнаяМетод сжатия : С потерямиБит/(Пиксели*Кадры) : 0.276Размер потока : 1,11 Гбайт (79%)Библиотека кодирования : XviD 73
    АудиоИдентификатор : 1Формат : AC-3Формат/Информация : Audio Coding 3Расширение режима : CM (complete main)Параметр Endianness формата : BigИдентификатор кодека : 2000Продолжительность : 1 ч. 49 м.Вид битрейта : ПостоянныйБитрейт : 384 Кбит/секКаналы : 6 каналовРасположение каналов : Front: L C R, Side: L R, LFEЧастота : 48,0 КГцБитовая глубина : 16 битМетод сжатия : С потерямиРазмер потока : 302 Мбайт (21%)Выравнивание : Соединение по промежуткамПродолжительность промежутка : 64 мс. (1,53 видеокадра)Время предзагрузки промежутка : 192 мс.Заголовок : iTunes

    Скриншот c названием фильма

    Скриншоты

    Время раздачи - по возможности.
    Скачать .torrent

    Скачать торрент-файл бесплатно и на максимальной скорости!

    Как скачивать? · Что такое торрент? · Рейтинг и ограничения

    !ВНИМАНИЕ!
    Сайт не распространяет и не хранит электронные версии произведений, а занимается лишь лишь предоставлением доступа к создаваемому пользователями каталогу ссылок на торрент-файлы, которые содержат только списки хеш-сумм, убедительная просьба с жалобами обращаться напрямую к пользователю. Файлы для обмена на трекере предоставлены пользователями сайта, и администрация не несёт ответственности за их содержание. Просьба не заливать файлы, защищенные авторскими правами, а также файлы нелегального содержания!


    _________________
    [Профиль] [ЛС]
    Показать сообщения:    
    Ответить на тему

    Текущее время: Сегодня, в 16:04

    Часовой пояс: GMT + 2



    Вы не можете начинать темы
    Вы не можете отвечать на сообщения
    Вы не можете редактировать свои сообщения
    Вы не можете удалять свои сообщения
    Вы не можете голосовать в опросах
    Вы не можете прикреплять файлы к сообщениям
    Вы не можете скачивать файлы