Register  ·  Log in
Forgot password?

  • В твоих глазах / In Your Eyes (Брин Хилл / Brin Hill) [2014, США, Фантастика, мелодрама, WEB-DLRip] DVO (SoftBox) + Sub rus, eng

    Reply to topic
    Author Message


    Post 09-Jun-2016 22:06



    В твоих глазах / In Your Eyes
    Страна: США
    Жанр: Фантастика, мелодрама
    Год выпуска: 2014
    Продолжительность: 01:45:44
    Перевод: Любительский (двухголосый закадровый) SoftBox
    Cубтитры: русские, английские
    Оригинальная аудиодорожка: нет
    Режиссер: Брин Хилл / Brin Hill
    В ролях: Зои Казан, Майкл Сталь-Дэвид, Никки Рид, Стив Харрис, Марк Фойерстин, Дженнифер Грей, Стив Хоуи, Кресс Уильямс, Престон Бэйли, Рид Бирни, Лиз Стаубер, Браден Фицджералд.
    Описание: Фильм рассказывает историю двух абсолютно разных людей, которые находятся в разных городах и ведут совершенно отличающуюся друг от друга жизнь. Но они оба имеют мощную связь между собой, и могут слышать и видеть друг друга на расстоянии.
    Качество видео: WEB-DLRip
    Формат видео: AVI
    Видео: Хvid; 720x400 (2.35:1); 23.976 fps; 1777 kbps avg
    Аудио: АС-3 ; 2 Сh, 44,1 KHz, 192 кб/с
    Формат субтитров: softsub (SRT)


    Format : AVI
    Format/Info : Audio Video Interleave
    File size : 1.46 GiB
    Duration : 1h 45mn
    Overall bit rate : 1 978 Kbps
    Writing application : VirtualDubMod | || (build 2550/release)
    Writing library : VirtualDubMod build 2550/release
    ID : 0
    Format : MPEG-4 Visual
    Format profile : Advanced Simple@L5
    Format settings, BVOP : 1
    Format settings, QPel : No
    Format settings, GMC : No warppoints
    Format settings, Matrix : Default (MPEG)
    Codec ID : XVID
    Codec ID/Hint : XviD
    Duration : 1h 45mn
    Bit rate : 1 777 Kbps
    Width : 720 pixels
    Height : 400 pixels
    Display aspect ratio : 16:9
    Frame rate : 23.976 (23976/1000) fps
    Color space : YUV
    Chroma subsampling : 4:2:0
    Bit depth : 8 bits
    Scan type : Progressive
    Compression mode : Lossy
    Bits/(Pixel*Frame) : 0.257
    Stream size : 1.31 GiB (90%)
    Writing library : XviD 73
    ID : 1
    Format : AC-3
    Format/Info : Audio Coding 3
    Mode extension : CM (complete main)
    Format settings, Endianness : Big
    Codec ID : 2000
    Duration : 1h 45mn
    Bit rate mode : Constant
    Bit rate : 192 Kbps
    Channel(s) : 2 channels
    Channel positions : Front: L R
    Sampling rate : 44.1 KHz
    Frame rate : 28.711 fps (1536 spf)
    Compression mode : Lossy
    Stream size : 145 MiB (10%)
    Alignment : Split accross interleaves
    Interleave, duration : 42 ms (1.00 video frame)
    Interleave, preload duration : 500 ms

    Скриншот c названием фильма


    Download .torrent

    Download free and at maximum speed!

    How to Download? · What is a torrent? · Ratings and Limitations

    The site does not extend and does not store electronic(digital) versions of products, and only gives access to a reference catalogue created by users on torrent-files which contain only lists of the hash-sums, the earnest entreaty, with complaints(abuse) to access directly to the user. Files for an exchange on tracker are given by users of a site, and the administration does not bear the responsibility for their maintenance. The request to not fill in the files protected by copyrights, and also files of the illegal maintenance!

    [Profile] [PM]
    Display posts from previous:    
    Reply to topic

    The time now is: Today 16:26

    All times are GMT + 3 Hours

    You cannot post new topics in this forum
    You cannot reply to topics in this forum
    You cannot edit your posts in this forum
    You cannot delete your posts in this forum
    You cannot vote in polls in this forum
    You cannot attach files in this forum
    You cannot download files in this forum