BitTorrentTracker PerecTracker.org
BitTorrentTracker PerecTracker.org
    
Регистрация  ·  Вход
 
 · 
Забыли пароль?

  • Третий лишний / The Third Wheel (Джордан Брэйди / Jordan Brady) [2002, США, комедия, WEB-DL 720p] DVO + AVO + Sub Eng + Original Eng

    Ответить на тему
     
    Автор Сообщение

    Light

    Создавать темы 09-Июн-2016 16:55

           

    [Цитировать]

    Третий лишний / The Third Wheel
    -Страна: США
    Жанр: комедия
    Год выпуска: 2002
    Продолжительность: 01:26:25-Перевод 1: Профессиональный (двухголосый закадровый)
    Перевод 2: Авторский (одноголосый закадровый) Евгений Рудой
    Cубтитры: английские
    Оригинальная аудиодорожка: английский-Режиссер: Джордан Брэйди / Jordan Brady-В ролях: Люк Уилсон, Дениз Ричардс, Джей Лакопо, Бен Аффлек, Фил Льюис, Дебора Тикер, Мелисса МакКарти, Тим ДиКей, Грег Питтс, Вейн Федерман-Описание:
    Холостяк Стэнли, однажды придя на работу, встречает девушку своей мечты. Диана не только чертовски привлекательна, но и отличный специалист, которого ценит начальство.
    Как подойти к ней и пригласить на свидание? Над этим вопросом наш герой размышляет в течение долгих месяцев и придумывает совершенный способ знакомства. Его друг Мишель сообщает Стену, что Диана порвала со своим бой — френдом Кевином и пришло время действовать.
    Стен наконец собирается с духом и приглашает Диану в театр, она к его удивлению говорит «да». Узнав про это, Мишель устраивает тотализатор среди сотрудников фирмы — сколько часов стеснительный Стен и шикарная Диана проведут вместе.
    Однако во время долгожданного свидания, на пути в театр Стен сбивает бомжа. Так бродяга Фил невольно становится третьим лишним, и спутывает все планы сладкой парочки.-Сэмпл: Скачать-Тип релиза: WEB-DL 720p
    Контейнер: MKV-Видео: 1 280x718 (16:9); 3 979 Kbps; 23.976 fps; 0.180 bpp
    Аудио 1: Russian; AC3; 48.0 KHz; 2ch; 192 Kbps DVO
    Аудио 2: Russian; AC3; 48.0 KHz; 6ch; 384 Kbps AVO
    Аудио 3: English; AC3; 48.0 KHz; 6ch; 384 Kbps
    Аудио 4: English; AAC; 48.0 KHz; 2ch; ~160 Kbps

    MediaInfo

    Format : Matroska
    Format version : Version 4 / Version 2
    File size : 3.07 GiB
    Duration : 1h 26mn
    Overall bit rate : 5 090 Kbps
    Encoded date : UTC 2016-06-03 09:05:07
    Writing application : mkvmerge v8.3.0 ('Over the Horizon') 64bit
    Writing library : libebml v1.3.1 + libmatroska v1.4.2
    Attachements : poster.jpg
    DURATION : 01:21:50.588000000
    NUMBER_OF_FRAMES : 1217
    NUMBER_OF_BYTES : 48494
    _STATISTICS_WRITING_APP : mkvmerge v8.3.0 ('Over the Horizon') 64bit
    _STATISTICS_WRITING_DATE_UT : 2016-06-03 09:05:07
    _STATISTICS_TAGS : BPS DURATION NUMBER_OF_FRAMES NUMBER_OF_BYTES
    Video
    ID : 1
    Format : AVC
    Format/Info : Advanced Video Codec
    Format profile : High@L3.1
    Format settings, CABAC : No
    Format settings, ReFrames : 2 frames
    Format settings, GOP : N=1
    Codec ID : V_MPEG4/ISO/AVC
    Duration : 1h 26mn
    Width : 1 280 pixels
    Height : 718 pixels
    Display aspect ratio : 16:9
    Frame rate mode : Constant
    Frame rate : 23.976 fps
    Color space : YUV
    Chroma subsampling : 4:2:0
    Bit depth : 8 bits
    Scan type : Progressive
    Language : English
    Default : Yes
    Forced : No
    Color range : Limited
    Color primaries : BT.709
    Transfer characteristics : BT.709
    Matrix coefficients : BT.709
    Audio #1
    ID : 2
    Format : AC-3
    Format/Info : Audio Coding 3
    Mode extension : CM (complete main)
    Format settings, Endianness : Big
    Codec ID : A_AC3
    Duration : 1h 26mn
    Bit rate mode : Constant
    Bit rate : 192 Kbps
    Channel(s) : 2 channels
    Channel positions : Front: L R
    Sampling rate : 48.0 KHz
    Compression mode : Lossy
    Stream size : 119 MiB (4%)
    Title : DVO
    Language : Russian
    Default : Yes
    Forced : No
    Audio #2
    ID : 3
    Format : AC-3
    Format/Info : Audio Coding 3
    Mode extension : CM (complete main)
    Format settings, Endianness : Big
    Codec ID : A_AC3
    Duration : 1h 26mn
    Bit rate mode : Constant
    Bit rate : 384 Kbps
    Channel(s) : 6 channels
    Channel positions : Front: L C R, Side: L R, LFE
    Sampling rate : 48.0 KHz
    Compression mode : Lossy
    Stream size : 237 MiB (8%)
    Title : AVO Евгений Рудой
    Language : Russian
    Default : No
    Forced : No
    Audio #3
    ID : 4
    Format : AAC
    Format/Info : Advanced Audio Codec
    Format profile : LC
    Codec ID : A_AAC
    Duration : 1h 26mn
    Channel(s) : 2 channels
    Channel positions : Front: L R
    Sampling rate : 48.0 KHz
    Compression mode : Lossy
    Language : English
    Default : No
    Forced : No
    Audio #4
    ID : 5
    Format : AC-3
    Format/Info : Audio Coding 3
    Mode extension : CM (complete main)
    Format settings, Endianness : Big
    Codec ID : A_AC3
    Duration : 1h 26mn
    Bit rate mode : Constant
    Bit rate : 384 Kbps
    Channel(s) : 6 channels
    Channel positions : Front: L C R, Side: L R, LFE
    Sampling rate : 48.0 KHz
    Compression mode : Lossy
    Stream size : 237 MiB (8%)
    Language : English
    Default : No
    Forced : No
    Text
    ID : 6
    Format : UTF-8
    Codec ID : S_TEXT/UTF8
    Codec ID/Info : UTF-8 Plain Text
    Language : English
    Default : No
    Forced : No
    Menu
    00:00:00.000 : en:"The New Girl"
    00:07:01.000 : en:Windows Of Opportunity
    00:18:31.000 : en:The Bets Are In
    00:22:20.000 : en:At The Restaurant
    00:27:53.000 : en:Phil's Settlement
    00:34:26.000 : en:Advice And An X-Ray
    00:42:02.000 : en:"I Like Bread"
    00:49:51.000 : en:"Who's On The Bus?"
    00:54:57.000 : en:Shared Moments
    00:55:29.000 : en:Unwinding
    01:00:38.000 : en:Enter The Ex
    01:03:59.000 : en:Phil's Menagerie
    01:10:37.000 : en:I'm Not鈥
    01:22:09.000 : en:End Credits

    Скриншоты

    Скачать .torrent

    Скачать торрент-файл бесплатно и на максимальной скорости!

    Как скачивать? · Что такое торрент? · Рейтинг и ограничения

    !ВНИМАНИЕ!
    Сайт не распространяет и не хранит электронные версии произведений, а занимается лишь лишь предоставлением доступа к создаваемому пользователями каталогу ссылок на торрент-файлы, которые содержат только списки хеш-сумм, убедительная просьба с жалобами обращаться напрямую к пользователю. Файлы для обмена на трекере предоставлены пользователями сайта, и администрация не несёт ответственности за их содержание. Просьба не заливать файлы, защищенные авторскими правами, а также файлы нелегального содержания!


    _________________
    [Профиль] [ЛС]
    Показать сообщения:    
    Ответить на тему

    Текущее время: Сегодня, в 09:54

    Часовой пояс: GMT + 2



    Вы не можете начинать темы
    Вы не можете отвечать на сообщения
    Вы не можете редактировать свои сообщения
    Вы не можете удалять свои сообщения
    Вы не можете голосовать в опросах
    Вы не можете прикреплять файлы к сообщениям
    Вы не можете скачивать файлы