BitTorrentTracker PerecTracker.org
BitTorrentTracker PerecTracker.org
    
Регистрация  ·  Вход
 
 · 
Забыли пароль?

  • В активном поиске / How to Be Single (Кристиан Диттер / Christian Ditter) [2016, США, мелодрама, комедия, BDRip 1080p] Dub + Sub Rus, Eng + Original Eng

    Ответить на тему
     
    Автор Сообщение

    Light

    Создавать темы 09-Июн-2016 16:54

           

    [Цитировать]

    -В активном поиске / How to Be Single-Страна: США
    Жанр: мелодрама, комедия
    Год выпуска: 2016
    Продолжительность: 01:49:49-Перевод: Профессиональный (дублированный)
    Cубтитры: русские, английские
    Оригинальная аудиодорожка: английский-Режиссер: Кристиан Диттер / Christian Ditter
    В ролях: Дакота Джонсон, Ребел Уилсон, Элисон Бри, Лесли Манн, Николас Браун, Джейсон Манцукас, Дэймон Уайанс мл., Колин Жост, Джейк Лэси, Андерс Холм, Сара Рамос, Ник Бейтман, Мики Гуч мл., Ванесса Рубио, Зани Джонс Мбаис, Брент Морин, Кэй Кэннон, Джудит Лайтфут Кларк, Патрик Болл, Анна Эйлинсфелд
    Описание: Устав от жизни со своим бойфрендом, Элис уходит от него, переезжает к старшей сестре Мэг, находит новую работу и обзаводится новой подругой Робин. Последняя оказывается страстной поклонницей ночных «отжигов» и пытается втянуть Элис в свою безумную жизнь, хотя та предпочитает чинные и продолжительные отношения пьяным знакомствам на вечеринках.-Сэмпл-Тип релиза: BDRip 1080p
    Контейнер: MKV
    Видео: MPEG-4 AVC Video 15200 kbps 1920x800p / 23,976 fps / High Profile 4.1
    Аудио: Russian / Dolby Digital Audio / 5.1 / 48 kHz / 640 kbps
    Аудио 2: English / DTS Audio 5.1 / 48 kHz / 1509 kbps
    Формат субтитров: softsub (SRT)

    Видеоряд от EbP

    .RELEASE iNFO
    RELEASE NAME.......: How.to.Be.Single.2016.1080p.BluRay.DD5.1.x264-EbPRUNTiME............: 1h 49mnFiLE SiZE..........: 12.4 GiBViDEO CODEC........: x264, crf, High@L4.1FRAMERATE..........: 23.976 fpsViDEO BiTRATE......: 15.2 MbpsASPECT RATiO.......: 2.40:1RESOLUTiON.........: 1920 x 800AUDiO .............: English AC-3 5.1 @ 640 KbpsSUBTiTLES..........: Eng, EngSDH, Fre, Spa (Latin American), Por (Brazilian) (.srt)CHAPTER............: IncludedSOURCE.............: 1080p Blu-ray AVC DTS-HD MA 5.1-BAKED (thanks dancingdemon)GREETiNGS..........: 9mm, Nick007 and all EbP & VietHD member !
    RELEASE.DATE.......: 05/06/2016
    .x264 iNFOLost.Avg QP B-frames around 19.
    -
    -Source|EbP|Scene







    MI

    GeneralUnique ID : 242322013602575122096811230488003273622 (0xB64D85B0168D31AB9C10330EF926E396)Complete name : L:\На хранении\В активном поиске (2016. How to Be Single).mkvFormat : MatroskaFormat version : Version 4 / Version 2File size : 13.6 GiBDuration : 1h 49mnOverall bit rate : 17.7 MbpsMovie name : Release for RuTrackerEncoded date : UTC 2016-06-08 00:15:31Writing application : mkvmerge v9.0.1 ('Obstacles') 64bitWriting library : libebml v1.3.3 + libmatroska v1.4.4Cover : YesAttachments : cover.jpg
    VideoID : 1Format : AVCFormat/Info : Advanced Video CodecFormat profile : High@L4.1Format settings, CABAC : YesFormat settings, ReFrames : 5 framesCodec ID : V_MPEG4/ISO/AVCDuration : 1h 49mnBit rate : 15.5 MbpsWidth : 1 920 pixelsHeight : 800 pixelsDisplay aspect ratio : 2.40:1Frame rate mode : ConstantFrame rate : 23.976 (24000/1001) fpsColor space : YUVChroma subsampling : 4:2:0Bit depth : 8 bitsScan type : ProgressiveBits/(Pixel*Frame) : 0.422Stream size : 11.9 GiB (88%)Title : How.to.Be.Single.2016.1080p.BluRay.DD5.1.x264-EbPWriting library : x264 core 148 r2694 3b70645Encoding settings : cabac=1 / ref=5 / deblock=1:-3:-3 / analyse=0x3:0x133 / me=umh / subme=10 / psy=1 / psy_rd=1.05:0.00 / mixed_ref=1 / me_range=16 / chroma_me=1 / trellis=2 / 8x8dct=1 / cqm=0 / deadzone=21,11 / fast_pskip=0 / chroma_qp_offset=-2 / threads=12 / lookahead_threads=2 / sliced_threads=0 / nr=0 / decimate=0 / interlaced=0 / bluray_compat=0 / constrained_intra=0 / bframes=9 / b_pyramid=2 / b_adapt=2 / b_bias=0 / direct=3 / weightb=1 / open_gop=0 / weightp=2 / keyint=250 / keyint_min=23 / scenecut=40 / intra_refresh=0 / rc=crf / mbtree=0 / crf=17.0 / qcomp=0.60 / qpmin=0 / qpmax=69 / qpstep=4 / ip_ratio=1.40 / pb_ratio=1.30 / aq=3:0.65 / zones=151125,157978,crf=22Language : EnglishDefault : YesForced : No
    Audio #1ID : 2Format : AC-3Format/Info : Audio Coding 3Mode extension : CM (complete main)Format settings, Endianness : BigCodec ID : A_AC3Duration : 1h 49mnBit rate mode : ConstantBit rate : 640 KbpsChannel(s) : 6 channelsChannel positions : Front: L C R, Side: L R, LFESampling rate : 48.0 KHzFrame rate : 31.250 fps (1536 spf)Compression mode : LossyStream size : 503 MiB (4%)Title : Дубляж [Blu-ray CEE]Language : RussianDefault : YesForced : No
    Audio #2ID : 3Format : DTSFormat/Info : Digital Theater SystemsMode : 16Format settings, Endianness : BigCodec ID : A_DTSDuration : 1h 49mnBit rate mode : ConstantBit rate : 1 509 KbpsChannel(s) : 6 channelsChannel positions : Front: L C R, Side: L R, LFESampling rate : 48.0 KHzFrame rate : 93.750 fps (512 spf)Bit depth : 24 bitsCompression mode : LossyStream size : 1.16 GiB (9%)Language : EnglishDefault : NoForced : No
    Text #1ID : 4Format : UTF-8Codec ID : S_TEXT/UTF8Codec ID/Info : UTF-8 Plain TextDuration : 1h 43mnBit rate : 3 bpsCount of elements : 78Stream size : 2.76 KiB (0%)Title : forcedLanguage : RussianDefault : YesForced : No
    Text #2ID : 5Format : UTF-8Codec ID : S_TEXT/UTF8Codec ID/Info : UTF-8 Plain TextDuration : 1h 43mnBit rate : 125 bpsCount of elements : 2028Stream size : 95.8 KiB (0%)Language : RussianDefault : NoForced : No
    Text #3ID : 6Format : UTF-8Codec ID : S_TEXT/UTF8Codec ID/Info : UTF-8 Plain TextDuration : 1h 42mnBit rate : 81 bpsCount of elements : 1939Stream size : 61.0 KiB (0%)Language : EnglishDefault : NoForced : No
    Text #4ID : 7Format : UTF-8Codec ID : S_TEXT/UTF8Codec ID/Info : UTF-8 Plain TextDuration : 1h 42mnBit rate : 88 bpsCount of elements : 2086Stream size : 66.4 KiB (0%)Title : SDHLanguage : EnglishDefault : NoForced : No
    Menu00:00:00.000 : en:Chapter 100:10:18.493 : en:Chapter 200:20:34.775 : en:Chapter 300:31:17.751 : en:Chapter 400:41:28.194 : en:Chapter 500:52:06.832 : en:Chapter 601:03:33.560 : en:Chapter 701:16:21.160 : en:Chapter 801:24:43.036 : en:Chapter 901:32:11.818 : en:Chapter 1001:43:26.826 : en:Chapter 11
    Скриншоты

    Зеркало


    Цитата:
    Цитата:

    • За дубляж с BD спасибо HDClub!
    • Сохранены оригинальные главы как на Blu-ray.
    Скачать .torrent

    Скачать торрент-файл бесплатно и на максимальной скорости!

    Как скачивать? · Что такое торрент? · Рейтинг и ограничения

    !ВНИМАНИЕ!
    Сайт не распространяет и не хранит электронные версии произведений, а занимается лишь лишь предоставлением доступа к создаваемому пользователями каталогу ссылок на торрент-файлы, которые содержат только списки хеш-сумм, убедительная просьба с жалобами обращаться напрямую к пользователю. Файлы для обмена на трекере предоставлены пользователями сайта, и администрация не несёт ответственности за их содержание. Просьба не заливать файлы, защищенные авторскими правами, а также файлы нелегального содержания!


    _________________
    [Профиль] [ЛС]
    Показать сообщения:    
    Ответить на тему

    Текущее время: Сегодня, в 06:54

    Часовой пояс: GMT + 2



    Вы не можете начинать темы
    Вы не можете отвечать на сообщения
    Вы не можете редактировать свои сообщения
    Вы не можете удалять свои сообщения
    Вы не можете голосовать в опросах
    Вы не можете прикреплять файлы к сообщениям
    Вы не можете скачивать файлы