BitTorrentTracker PerecTracker.org
BitTorrentTracker PerecTracker.org
    
Регистрация  ·  Вход
 
 · 
Забыли пароль?

  • Абсолютно чёрное / Кровавая тень прошлого / Solamente nero / The Blood Stained Shadow (Антонио Бидо / Antonio Bido) [1978, Италия, триллер, джалло, BDRemux 1080p] DVO + Sub Eng + Original Ita

    Ответить на тему
     
    Автор Сообщение

    Light

    Создавать темы 09-Июн-2016 16:54

           

    [Цитировать]

    -Абсолютно чёрное / Кровавая тень прошлого / Solamente nero / The Blood Stained Shadow-Страна: Италия
    Жанр: Триллер, джалло
    Год выпуска: 1978
    Продолжительность: 01:48:53-Перевод: Любительский (двухголосый закадровый)
    Cубтитры: английские
    Оригинальная аудиодорожка: итальянский-Режиссер: Антонио Бидо / Antonio Bido
    В ролях: Лино Каполиккьо, Стефания Казини, Крэйг Хилл, Массимо Серато, Жюльет Майниель, Лаура Нуччи, Аттилио Дузе, Джанфранко Булло, Луиджи Каселлато, Альфредо Замм-Описание: Погостить к старшему брату-священнику в Венецию приезжает молодой профессор Стефано Д`Аркангело. Но не успел он обжиться в скромной обители, как брат становится свидетелем убийства местной женщины-медиума, после которого неизвестный начинает угрожать ему в письменной форме. Решив помочь религиозному родственнику, Стефано начинает собственное расследование, во время которого трупов, разумеется, прибывает, но усилия молодого человека в конце концов дают свои плоды. Вот только воспользоваться ими, по сути дела, уже и некому…- || Сэмпл-Тип релиза: BDRemux 1080p
    Контейнер: MKV
    Видео: MPEG-4 AVC Video / 30000 kbps / 1080p / 23,976 fps / 16:9 / High Profile 4.1
    Аудио: Russian / Dolby Digital Audio / 2.0 / 48 kHz / 192 kbps
    Аудио 2: Italian / FLAC Audio / 2.0 / 48 kHz / 1182 kbps / 24-bit
    Аудио 3: English / FLAC Audio / 2.0 / 48 kHz / 1251 kbps / 24-bit
    Формат субтитров: softsub (SRT)

    MI

    GeneralUnique ID : 208388986165594413504494290636403246393 (0x9CC642443C20CBFAB7B6D3A4559E0539)Complete name : P:\Джалло\Кровавая тень прошлого (1978. Solamente nero).mkvFormat : MatroskaFormat version : Version 4 / Version 2File size : 24.8 GiBDuration : 1h 48mnOverall bit rate mode : VariableOverall bit rate : 32.6 MbpsMovie name : Release for RuTrackerEncoded date : UTC 2016-06-08 11:54:41Writing application : mkvmerge v9.0.1 ('Obstacles') 64bitWriting library : libebml v1.3.3 + libmatroska v1.4.4Cover : YesAttachments : Cover.jpg
    VideoID : 1Format : AVCFormat/Info : Advanced Video CodecFormat profile : High@L4.1Format settings, CABAC : YesFormat settings, ReFrames : 4 framesFormat settings, GOP : M=3, N=24Codec ID : V_MPEG4/ISO/AVCDuration : 1h 48mnBit rate mode : VariableBit rate : 30.0 MbpsMaximum bit rate : 38.0 MbpsWidth : 1 920 pixelsHeight : 1 080 pixelsDisplay aspect ratio : 16:9Frame rate mode : ConstantFrame rate : 23.976 (24000/1001) fpsStandard : NTSCColor space : YUVChroma subsampling : 4:2:0Bit depth : 8 bitsScan type : ProgressiveBits/(Pixel*Frame) : 0.603Stream size : 22.8 GiB (92%)Title : Solamente nero 1978 1080p GBR Blu-ray AVC LPCM 2.0-ESiRLanguage : ItalianDefault : YesForced : NoColor range : LimitedColor primaries : BT.709Transfer characteristics : BT.709Matrix coefficients : BT.709
    Audio #1ID : 2Format : AC-3Format/Info : Audio Coding 3Mode extension : CM (complete main)Format settings, Endianness : BigCodec ID : A_AC3Duration : 1h 48mnBit rate mode : ConstantBit rate : 192 KbpsChannel(s) : 2 channelsChannel positions : Front: L RSampling rate : 48.0 KHzFrame rate : 31.250 fps (1536 spf)Compression mode : LossyStream size : 149 MiB (1%)Title : DVOLanguage : RussianDefault : YesForced : No
    Audio #2ID : 3Format : FLACFormat/Info : Free Lossless Audio CodecCodec ID : A_FLACDuration : 1h 48mnBit rate mode : VariableBit rate : 1 182 KbpsChannel(s) : 2 channelsChannel positions : Front: L RSampling rate : 48.0 KHzFrame rate : 11.719 fps (4096 spf)Bit depth : 24 bitsStream size : 921 MiB (4%)Writing library : libFLAC 1.2.1 (UTC 2007-09-17)Language : ItalianDefault : NoForced : No
    Audio #3ID : 4Format : FLACFormat/Info : Free Lossless Audio CodecCodec ID : A_FLACDuration : 1h 48mnBit rate mode : VariableBit rate : 1 251 KbpsChannel(s) : 2 channelsChannel positions : Front: L RSampling rate : 48.0 KHzFrame rate : 11.719 fps (4096 spf)Bit depth : 24 bitsStream size : 974 MiB (4%)Writing library : libFLAC 1.2.1 (UTC 2007-09-17)Language : EnglishDefault : NoForced : No
    TextID : 5Format : UTF-8Codec ID : S_TEXT/UTF8Codec ID/Info : UTF-8 Plain TextDuration : 1h 43mnBit rate : 36 bpsCount of elements : 831Stream size : 28.1 KiB (0%)Language : EnglishDefault : NoForced : No
    Menu00:00:00.000 : en:00:00:00.00000:11:17.176 : en:00:11:17.17600:22:18.671 : en:00:22:18.67100:36:39.322 : en:00:36:39.32200:52:07.374 : en:00:52:07.37401:09:55.817 : en:01:09:55.81701:29:09.427 : en:01:29:09.42701:43:30.955 : en:01:43:30.955

    Скриншоты


    Зеркало


    Скачать .torrent

    Скачать торрент-файл бесплатно и на максимальной скорости!

    Как скачивать? · Что такое торрент? · Рейтинг и ограничения

    !ВНИМАНИЕ!
    Сайт не распространяет и не хранит электронные версии произведений, а занимается лишь лишь предоставлением доступа к создаваемому пользователями каталогу ссылок на торрент-файлы, которые содержат только списки хеш-сумм, убедительная просьба с жалобами обращаться напрямую к пользователю. Файлы для обмена на трекере предоставлены пользователями сайта, и администрация не несёт ответственности за их содержание. Просьба не заливать файлы, защищенные авторскими правами, а также файлы нелегального содержания!


    _________________
    [Профиль] [ЛС]
    Показать сообщения:    
    Ответить на тему

    Текущее время: Сегодня, в 05:56

    Часовой пояс: GMT + 2



    Вы не можете начинать темы
    Вы не можете отвечать на сообщения
    Вы не можете редактировать свои сообщения
    Вы не можете удалять свои сообщения
    Вы не можете голосовать в опросах
    Вы не можете прикреплять файлы к сообщениям
    Вы не можете скачивать файлы