BitTorrentTracker PerecTracker.org
BitTorrentTracker PerecTracker.org
    
Регистрация  ·  Вход
 
 · 
Забыли пароль?

  • Белая змея / Die weisse Schlange (Стефан Бюлинг / Stefan Buhling) [2015, Германия, драма, семейный, фэнтези, сказка бр. Гримм, TVRip] + Sub Rus + Original Ger

    Ответить на тему
     
    Автор Сообщение

    Light

    Создавать темы 09-Июн-2016 12:42

           

    [Цитировать]

    Белая змея / Die weisse Schlange
    Страна: Германия
    Жанр: драма, семейный, фэнтези
    Год выпуска: 2015
    Продолжительность: 01:30:00
    Перевод: Субтитры
    Cубтитры: русские (перевод с нем. Алексея Королёва и Марии Игнатовой (Mig_88)
    Оригинальная аудиодорожка: немецкий
    Режиссер: Стефан Бюлинг / Stefan Bühling
    В ролях: Тим Оливер Шульц, Райнер Шёне, Фрида Ловиза Хаманн, Ютта Фастиан, Доминик Ранебургер, Эрвин Ледер, Хайнц Трикснер и др.
    Описание: Вольная интерпретация сказки братьев Гримм "Белая змея". Сын крестьянина Эндрес случайно попадает в услужение могущественному королю, о мудрости которого известно далеко за пределами королевства. Когда Эндрес выясняет источник знаний короля, он сам оказывается в смертельной опасности...
    Доп. информация: перевод с немецкого (на слух): Алексей Королев, Мария Игнатова (Mig_88), за что им огромное спасибо!
    Сэмпл: http://multi-up.com/1104933
    Качество видео: TVRip
    Формат видео: MKV
    Видео: V_MPEG4/ISO/AVC, 720х576@1024х576, 16:9, 25.000 fps, 944 Kbps
    Аудио: mp3, 48.0 KHz, 192 Kbps, 2 channels
    Формат субтитров: softsub (SRT)

    MediaInfo

    Format : Matroska
    Format version : Version 4 / Version 2
    File size : 750 MiB
    Duration : 1h 30mn
    Overall bit rate : 1 159 Kbps
    Encoded date : UTC 2016-06-07 20:24:31
    Writing application : mkvmerge v6.0.0 ('Coming Up For Air') built on Jan 20 2013 09:52:00
    Writing library : libebml v1.3.0 + libmatroska v1.4.0
    Video
    ID : 1
    Format : AVC
    Format/Info : Advanced Video Codec
    Format profile : High@L3
    Format settings, CABAC : Yes
    Format settings, ReFrames : 4 frames
    Codec ID : V_MPEG4/ISO/AVC
    Duration : 1h 30mn
    Bit rate : 944 Kbps
    Width : 720 pixels
    Height : 576 pixels
    Display aspect ratio : 16:9
    Frame rate mode : Constant
    Frame rate : 25.000 fps
    Standard : PAL
    Color space : YUV
    Chroma subsampling : 4:2:0
    Bit depth : 8 bits
    Scan type : Progressive
    Bits/(Pixel*Frame) : 0.091
    Stream size : 611 MiB (81%)
    Default : Yes
    Forced : No
    Color range : Limited
    Color primaries : BT.601 PAL
    Transfer characteristics : BT.470 System B, BT.470 System G
    Matrix coefficients : BT.601
    Statistics Tags Issue : mkvmerge v8.0.0 ('Til The Day That I Die') 64bit 2015-12-24 23:24:14 / mkvmerge v6.0.0 ('Coming Up For Air') built on Jan 20 2013 09:52:00 2016-06-07 20:24:31
    FromStats_BitRate : 965075
    FromStats_Duration : 01:30:26.520000000
    FromStats_FrameCount : 135663
    FromStats_StreamSize : 654625028
    Audio
    ID : 2
    Format : MPEG Audio
    Format version : Version 1
    Format profile : Layer 3
    Mode : Joint stereo
    Mode extension : MS Stereo
    Codec ID : A_MPEG/L3
    Codec ID/Hint : MP3
    Duration : 1h 30mn
    Bit rate mode : Constant
    Bit rate : 192 Kbps
    Channel(s) : 2 channels
    Sampling rate : 48.0 KHz
    Compression mode : Lossy
    Stream size : 124 MiB (17%)
    Writing library : LAME3.99.4„$а/M4"
    Language : German
    Default : Yes
    Forced : No
    Statistics Tags Issue : mkvmerge v8.0.0 ('Til The Day That I Die') 64bit 2015-12-24 23:24:14 / mkvmerge v6.0.0 ('Coming Up For Air') built on Jan 20 2013 09:52:00 2016-06-07 20:24:31
    FromStats_BitRate : 192000
    FromStats_Duration : 01:30:26.520000000
    FromStats_FrameCount : 226105
    FromStats_StreamSize : 130236480
    Text
    ID : 3
    Format : UTF-8
    Codec ID : S_TEXT/UTF8
    Codec ID/Info : UTF-8 Plain Text
    Default : Yes
    Forced : No

    Скриншот c названием фильма

    Скриншоты

    ,,,,,

    Пример субтитров

    8
    00:01:54,060 --> 00:01:56,740
    - Смотри - буква "Р".
    9
    00:01:57,300 --> 00:02:00,220
    "Р", как в слове "разбогатеть".
    10
    00:02:00,980 --> 00:02:04,500
    И "ром".
    11
    00:02:06,980 --> 00:02:09,820
    музыка
    <i>Стефан Мариа Шнайдер</i>
    12
    00:02:16,260 --> 00:02:19,660
    сценарий
    <i>Макс Хонерт, Йорг Менке-Пайцмейер</i>
    13
    00:02:19,780 --> 00:02:22,620
    - Дай сюда нож.
    Хватит.
    14
    00:02:29,300 --> 00:02:31,950
    - Деревне не повредит, если кто-то будет
    уметь читать и писать.
    15
    00:02:32,620 --> 00:02:37,460
    - Деревне нужен тот, кто умеет чинить крышу.
    А свои закорючки забудь.
    16
    00:02:40,500 --> 00:02:43,980
    И за что Бог наказал меня
    таким бездельником!
    17
    00:02:44,660 --> 00:02:47,420
    Вот у других крестьян
    толковые сыновья...
    18
    00:02:51,780 --> 00:02:55,260
    режиссер
    <i>Стефан Бюлинг</i>
    19
    00:03:02,300 --> 00:03:05,340
    - Эндрес!
    Еще надо?
    20
    00:03:05,860 --> 00:03:07,980
    - Не, хватит!
    21
    00:03:28,820 --> 00:03:32,580
    - Посланник короля!
    22
    00:03:44,260 --> 00:03:49,180
    - Его величество король Конрад
    приказывает всем подданным собирать урожай!
    23
    00:03:49,620 --> 00:03:51,620
    (наперебой) - Что?
    - Как это? - Почему?
    24
    00:03:51,700 --> 00:03:54,380
    - Надвигается непогода.
    25
    00:03:57,500 --> 00:04:00,380
    - Зерну надо позреть еще пару дней.
    26
    00:04:00,500 --> 00:04:02,780
    Надо подождать.
    27
    00:04:02,900 --> 00:04:05,260
    - Король еще никогда не ошибался.
    28
    00:04:05,380 --> 00:04:07,740
    - Мы должны благодарить его...
    - Замолчи!
    29
    00:04:08,620 --> 00:04:11,020
    - Но он... он...
    - Тихо!
    30
    00:04:12,550 --> 00:04:14,860
    - Слова неразумного крестьянина!
    31
    00:04:14,940 --> 00:04:18,780
    Но если вам хочется голодать
    - дело ваше.
    32
    00:04:20,900 --> 00:04:24,140
    - Пойдём, пока не поздно,
    пойдем.
    33
    00:04:26,260 --> 00:04:28,180
    - Если бы подати были меньше,
    34
    00:04:28,420 --> 00:04:33,100
    обошлись бы без королевских предсказаний.
    И голодать бы тоже не пришлось.
    35
    00:04:35,100 --> 00:04:39,500
    - Больше не могу, иначе я лопну!
    - Закрой глаза.
    36
    00:04:39,660 --> 00:04:41,660
    - Глаза?
    37
    00:04:41,980 --> 00:04:44,740
    Хорошо.
    38
    00:04:45,460 --> 00:04:48,140
    Конрад, что это?
    39
    00:04:48,260 --> 00:04:51,100
    - Открывай.
    40
    00:04:52,660 --> 00:04:54,860
    - Рубин!
    Скачать .torrent

    Скачать торрент-файл бесплатно и на максимальной скорости!

    Как скачивать? · Что такое торрент? · Рейтинг и ограничения

    !ВНИМАНИЕ!
    Сайт не распространяет и не хранит электронные версии произведений, а занимается лишь лишь предоставлением доступа к создаваемому пользователями каталогу ссылок на торрент-файлы, которые содержат только списки хеш-сумм, убедительная просьба с жалобами обращаться напрямую к пользователю. Файлы для обмена на трекере предоставлены пользователями сайта, и администрация не несёт ответственности за их содержание. Просьба не заливать файлы, защищенные авторскими правами, а также файлы нелегального содержания!


    _________________
    [Профиль] [ЛС]
    Показать сообщения:    
    Ответить на тему

    Текущее время: Сегодня, в 02:34

    Часовой пояс: GMT + 2



    Вы не можете начинать темы
    Вы не можете отвечать на сообщения
    Вы не можете редактировать свои сообщения
    Вы не можете удалять свои сообщения
    Вы не можете голосовать в опросах
    Вы не можете прикреплять файлы к сообщениям
    Вы не можете скачивать файлы