BitTorrentTracker PerecTracker.org
BitTorrentTracker PerecTracker.org
    
Регистрация  ·  Вход
 
 · 
Забыли пароль?

  • Лучший доктор — ты сам. Чжэн Фучжун [2013, китайская медицина, DVDRip] (Видеоурок)

    Ответить на тему
     
    Автор Сообщение

    rechyn

    Создавать темы 09-Июн-2016 08:24

           

    [Цитировать]

    "Лучший доктор — ты сам" Чжэн Фучжун
    Страна: Россия
    Тематика: Китайская медицина
    Тип раздаваемого материала: Видеоурок
    Продолжительность: 01:12:22 + (05:26:32 аудиокнига)
    Год выпуска: 2013
    Язык: Русский
    Перевод: Не требуется
    Описание:
    • Эксклюзивная книга «Лучший доктор — ты сам»;
    • Специальный подарок от доктора Чжэн Фучжуна — Плакат формата А2 «Стандартное расположение каналов и акупунктурных точек»;
    • Аудиоверсия эксклюзивной книги «Лучший Доктор — Ты Сам» на DVD;
    • Эксклюзивный видеокурс «Даосская гимнастика «Пять стихий» – Пять простых энергетических упражнений для укрепления основных каналов и соответствующих им органов» на DVD;
    Качество: DVDRip
    Формат: MP4
    Видео кодек: MPEG-4 Visual
    Аудио кодек: AAC
    Видео: 720х406, 719 - 1046 Кбит/сек, 25,000 кадров/сек
    Аудио: 44,1 КГц, 128 Кбит/сек, 2 канала
    Аудиокнига: MP3, 44,1 КГц, 128 Кбит/сек, моно, 16 бит

    MediaInfo

    Общее
    Полное имя : F:\Видеоуроки\Лучший доктор — ты сам Чжэн Фучжун\Видео mp4\Практика.mp4
    Формат : MPEG-4
    Профиль формата : Base Media
    Идентификатор кодека : isom
    Размер файла : 248 Мбайт
    Продолжительность : 40 м.
    Режим общего битрейта : Переменный
    Общий поток : 852 Кбит/сек
    Название фильма : video_Title2
    Программа кодирования : Lavf54.46.100
    Видео
    Идентификатор : 1
    Формат : MPEG-4 Visual
    Параметр BVOP формата : Нет
    Параметр QPel формата : Нет
    Параметр GMC формата : Без точки перехода
    Параметр матрицы формата : Default (H.263)
    Идентификатор кодека : 20
    Продолжительность : 40 м.
    Вид битрейта : Переменный
    Битрейт : 719 Кбит/сек
    Максимальный битрейт : 800 Кбит/сек
    Ширина : 720 пикселей
    Высота : 406 пикселей
    Соотношение сторон : 16:9
    Режим частоты кадров : Постоянный
    Частота кадров : 25,000 кадров/сек
    Цветовое пространство : YUV
    Субдискретизация насыщенности : 4:2:0
    Битовая глубина : 8 бит
    Тип развёртки : Прогрессивная
    Метод сжатия : С потерями
    Бит/(Пиксели*Кадры) : 0.098
    Размер потока : 209 Мбайт (84%)
    Библиотека кодирования : Lavc54.79.100
    Аудио
    Идентификатор : 2
    Формат : AAC
    Формат/Информация : Advanced Audio Codec
    Профиль формата : LC
    Идентификатор кодека : 40
    Продолжительность : 40 м.
    Вид битрейта : Постоянный
    Битрейт : 128 Кбит/сек
    Каналы : 2 канала
    Расположение каналов : Front: L R
    Частота : 44,1 КГц
    Метод сжатия : С потерями
    Размер потока : 37,2 Мбайт (15%)
    Общее
    Полное имя : F:\Видеоуроки\Лучший доктор — ты сам Чжэн Фучжун\Видео mp4\Теория.mp4
    Формат : MPEG-4
    Профиль формата : Base Media
    Идентификатор кодека : isom
    Размер файла : 269 Мбайт
    Продолжительность : 31 м.
    Режим общего битрейта : Постоянный
    Общий поток : 1178 Кбит/сек
    Название фильма : video_Title1
    Программа кодирования : Lavf54.46.100
    Видео
    Идентификатор : 1
    Формат : MPEG-4 Visual
    Параметр BVOP формата : Нет
    Параметр QPel формата : Нет
    Параметр GMC формата : Без точки перехода
    Параметр матрицы формата : Default (H.263)
    Идентификатор кодека : 20
    Продолжительность : 31 м.
    Вид битрейта : Постоянный
    Битрейт : 1046 Кбит/сек
    Ширина : 720 пикселей
    Высота : 406 пикселей
    Соотношение сторон : 16:9
    Режим частоты кадров : Постоянный
    Частота кадров : 25,000 кадров/сек
    Цветовое пространство : YUV
    Субдискретизация насыщенности : 4:2:0
    Битовая глубина : 8 бит
    Тип развёртки : Прогрессивная
    Метод сжатия : С потерями
    Бит/(Пиксели*Кадры) : 0.143
    Размер потока : 239 Мбайт (89%)
    Библиотека кодирования : Lavc54.79.100
    Аудио
    Идентификатор : 2
    Формат : AAC
    Формат/Информация : Advanced Audio Codec
    Профиль формата : LC
    Идентификатор кодека : 40
    Продолжительность : 31 м.
    Вид битрейта : Постоянный
    Битрейт : 128 Кбит/сек
    Каналы : 2 канала
    Расположение каналов : Front: L R
    Частота : 44,1 КГц
    Метод сжатия : С потерями
    Размер потока : 29,2 Мбайт (11%)

    Скриншоты

    Скачать .torrent

    Скачать торрент-файл бесплатно и на максимальной скорости!

    Как скачивать? · Что такое торрент? · Рейтинг и ограничения

    !ВНИМАНИЕ!
    Сайт не распространяет и не хранит электронные версии произведений, а занимается лишь лишь предоставлением доступа к создаваемому пользователями каталогу ссылок на торрент-файлы, которые содержат только списки хеш-сумм, убедительная просьба с жалобами обращаться напрямую к пользователю. Файлы для обмена на трекере предоставлены пользователями сайта, и администрация не несёт ответственности за их содержание. Просьба не заливать файлы, защищенные авторскими правами, а также файлы нелегального содержания!


    _________________
    [Профиль] [ЛС]
    Показать сообщения:    
    Ответить на тему

    Текущее время: Сегодня, в 14:40

    Часовой пояс: GMT + 2



    Вы не можете начинать темы
    Вы не можете отвечать на сообщения
    Вы не можете редактировать свои сообщения
    Вы не можете удалять свои сообщения
    Вы не можете голосовать в опросах
    Вы не можете прикреплять файлы к сообщениям
    Вы не можете скачивать файлы