BitTorrentTracker PerecTracker.org
BitTorrentTracker PerecTracker.org
    
Регистрация  ·  Вход
 
 · 
Забыли пароль?

  • Экипаж (Николай Лебедев) [2016, драма, приключения, триллер, BDRip-AVC]

    Ответить на тему
     
    Автор Сообщение

    Flirldrerve

    Создавать темы 09-Июн-2016 04:18

           

    [Цитировать]

    Экипаж-Страна: Россия
    Жанр: драма, приключения, триллер
    Год выпуска: 2016
    Продолжительность: 02:17:12
    Перевод: Не требуется
    Оригинальная аудиодорожка: русский
    Режиссёр: Николай Лебедев
    В ролях: Данила Козловский, Владимир Машков, Агне Грудите, Катерина Шпица, Сергей Газаров, Елена Яковлева, Сергей Шакуров, Вера Иванова, Татьяна Новик, Сергей Кемпо, Алёна Бабенко, Сергей Романович, и др.
    Описание: Молодой и талантливый лётчик Алексей Гущин из-за своего неуступчивого характера не смог удержаться ни в военной, ни в грузовой авиации. Начальство не желает видеть в своих рядах подчинённого, который готов оспаривать приказы, даже если те действительно абсурдны. Наконец, при помощи отца он устраивается на работу в пассажирскую авиакомпанию в экипаж строгого Леонида Зинченко, профессионала, чья дисциплина и неукоснительное следование правилам стали уже легендарными. Роль второго пилота не очень нравится своенравному Гущину, у которого на всё своё мнение, но, тем не менее, пилоты уживаются и начинают спокойно работать.
    Всё было нормально до случая со скандалом на борту, когда Алексей усмирил зарвавшегося VIP-пассажира. Тот оказывается одним из совладельцев компании, и лётчик попадает в опалу. Вместо увольнения, которого удалось избежать по просьбе Зинченко, экипаж отправляют далеко от престижных маршрутов. Их новая задача – возить пассажиров между архипелагами в Тихом океане, где ведутся большие горнопромышленные работы. В один из дней рутинные перелёты прерваны экстренным вызовом – на одном из островов началось сильнейшее извержение вулкана. Чтобы спасти людей от раскалённой лавы, у наших лётчиков есть всего один шанс. Теперь нужно забыть о былых разногласиях, собраться и выполнить всё от них зависящее на пределе своих возможностей.

    Качество: BDRip-AVC (исходник - Blu-ray [3D/2D]|EKIPAZH_BD_RUS_3D_BLUEBIRD)
    Формат: MKV
    Видео: x264, 1088x462 (2.35:1), 23.976 кадр/сек, 2585 Кбит/сек, 0.214 bit/pixel
    Аудио: 48 kHz, AC3 Dolby Digital, 3/2 (L,C,R,l,r) + LFE ch, ~448 kbps avg
    MediaInfo | x264 log
    Format : Matroska
    Format version : Version 4 / Version 2
    File size : 2.90 GiB
    Duration : 2h 17mn
    Overall bit rate : 3 030 Kbps
    Movie name : Экипаж (2016) :: AFM ::
    Encoded date : UTC 2016-06-08 21:52:46
    Writing application : mkvmerge v8.3.0 ('Over the Horizon') 32bit
    Writing library : libebml v1.3.1 + libmatroska v1.4.2
    Video
    ID : 1
    Format : AVC
    Format/Info : Advanced Video Codec
    Format profile : High@L4.1
    Format settings, CABAC : Yes
    Format settings, ReFrames : 12 frames
    Codec ID : V_MPEG4/ISO/AVC
    Duration : 2h 17mn
    Bit rate : 2 585 Kbps
    Width : 1 088 pixels
    Height : 462 pixels
    Display aspect ratio : 2.35:1
    Frame rate mode : Constant
    Frame rate : 23.976 fps
    Color space : YUV
    Chroma subsampling : 4:2:0
    Bit depth : 8 bits
    Scan type : Progressive
    Bits/(Pixel*Frame) : 0.214
    Stream size : 2.42 GiB (83%)
    Title : BDRip by AFM [RuTracker.org]
    Writing library : x264 core 148 r2665+53 6629127 t_mod_Custom [8-bit@all X86_64]
    Encoding settings : cabac=1 / ref=12 / deblock=1:-2:-2 / analyse=0x3:0x113 / me=umh / subme=10 / psy=1 / fade_compensate=0.00 / psy_rd=1.00:0.00 / mixed_ref=1 / me_range=32 / chroma_me=1 / trellis=2 / 8x8dct=1 / cqm=0 / deadzone=21,11 / fast_pskip=0 / chroma_qp_offset=-2 / threads=6 / lookahead_threads=1 / sliced_threads=0 / nr=0 / decimate=0 / interlaced=0 / bluray_compat=0 / constrained_intra=0 / fgo=0 / bframes=14 / b_pyramid=2 / b_adapt=2 / b_bias=0 / direct=3 / weightb=1 / open_gop=0 / weightp=2 / keyint=250 / keyint_min=23 / scenecut=40 / intra_refresh=0 / rc_lookahead=40 / rc=2pass / mbtree=0 / bitrate=2585 / ratetol=1.0 / qcomp=0.65 / qpmin=0:0:0 / qpmax=69:69:69 / qpstep=4 / cplxblur=20.0 / qblur=0.5 / vbv_maxrate=50000 / vbv_bufsize=62500 / nal_hrd=none / filler=0 / ip_ratio=1.30 / pb_ratio=1.22 / aq=1:0.80 / aq-sensitivity=10.00 / aq-factor=1.00:1.00:1.00 / aq2=0 / aq3=0
    Language : English
    Default : Yes
    Forced : No
    Audio
    ID : 2
    Format : AC-3
    Format/Info : Audio Coding 3
    Mode extension : CM (complete main)
    Format settings, Endianness : Big
    Codec ID : A_AC3
    Duration : 2h 17mn
    Bit rate mode : Constant
    Bit rate : 448 Kbps
    Channel(s) : 6 channels
    Channel positions : Front: L C R, Side: L R, LFE
    Sampling rate : 48.0 KHz
    Compression mode : Lossy
    Stream size : 440 MiB (15%)
    Title : AC3 5.1 ~448 kbps
    Language : Russian
    Default : Yes
    Forced : No
    Menu
    00:00:00.000 : en:Chapter 01
    00:10:07.315 : en:Chapter 02
    00:22:12.705 : en:Chapter 03
    00:32:04.463 : en:Chapter 04
    00:44:39.425 : en:Chapter 05
    00:54:12.748 : en:Chapter 06
    01:05:24.003 : en:Chapter 07
    01:17:50.373 : en:Chapter 08
    01:29:18.435 : en:Chapter 09
    01:37:11.658 : en:Chapter 10
    01:49:33.733 : en:Chapter 11
    02:05:27.603 : en:Chapter 12
    02:17:12.182 : en:Chapter 13

    x264

    x264 [info]: frame I:1356 Avg QP:15.85 size: 53275
    x264 [info]: frame P:51941 Avg QP:18.39 size: 23122
    x264 [info]: frame B:144081 Avg QP:19.75 size: 9592
    x264 [info]: consecutive B-frames: 4.6% 5.1% 12.9% 28.7% 16.3% 26.4% 3.0% 0.7% 0.8% 0.4% 0.3% 0.3% 0.2% 0.3% 0.1%
    x264 [info]: mb I I16..4: 6.0% 77.7% 16.3%
    x264 [info]: mb P I16..4: 2.8% 17.6% 2.2% P16..4: 37.2% 25.0% 11.1% 0.0% 0.0% skip: 4.1%
    x264 [info]: mb B I16..4: 0.3% 1.4% 0.2% B16..8: 40.0% 15.7% 4.1% direct: 8.5% skip:29.8% L0:43.4% L1:42.7% BI:13.8%
    x264 [info]: 8x8 transform intra:76.9% inter:67.3%
    x264 [info]: direct mvs spatial:97.3% temporal:2.7%
    x264 [info]: coded y,uvDC,uvAC intra: 74.6% 79.8% 56.8% inter: 32.1% 35.8% 14.8%
    x264 [info]: i16 v,h,dc,p: 24% 16% 7% 53%
    x264 [info]: i8 v,h,dc,ddl,ddr,vr,hd,vl,hu: 11% 10% 9% 9% 13% 13% 13% 11% 12%
    x264 [info]: i4 v,h,dc,ddl,ddr,vr,hd,vl,hu: 12% 10% 5% 8% 15% 14% 14% 10% 12%
    x264 [info]: i8c dc,h,v,p: 42% 24% 18% 16%
    x264 [info]: Weighted P-Frames: Y:98.2% UV:4.1%
    x264 [info]: ref P L0: 44.8% 11.1% 16.6% 6.5% 5.4% 3.7% 3.3% 2.0% 1.8% 1.5% 1.5% 1.3% 0.4% 0.0%
    x264 [info]: ref B L0: 70.9% 12.2% 5.8% 3.1% 2.3% 1.8% 1.4% 0.9% 0.8% 0.5% 0.2%
    x264 [info]: ref B L1: 93.0% 7.0%
    x264 [info]: kb/s:2580.34

    Скриншоты

    с названием

    Скачать .torrent

    Скачать торрент-файл бесплатно и на максимальной скорости!

    Как скачивать? · Что такое торрент? · Рейтинг и ограничения

    !ВНИМАНИЕ!
    Сайт не распространяет и не хранит электронные версии произведений, а занимается лишь лишь предоставлением доступа к создаваемому пользователями каталогу ссылок на торрент-файлы, которые содержат только списки хеш-сумм, убедительная просьба с жалобами обращаться напрямую к пользователю. Файлы для обмена на трекере предоставлены пользователями сайта, и администрация не несёт ответственности за их содержание. Просьба не заливать файлы, защищенные авторскими правами, а также файлы нелегального содержания!


    _________________
    [Профиль] [ЛС]
    Показать сообщения:    
    Ответить на тему

    Текущее время: Сегодня, в 08:21

    Часовой пояс: GMT + 2



    Вы не можете начинать темы
    Вы не можете отвечать на сообщения
    Вы не можете редактировать свои сообщения
    Вы не можете удалять свои сообщения
    Вы не можете голосовать в опросах
    Вы не можете прикреплять файлы к сообщениям
    Вы не можете скачивать файлы