BitTorrentTracker PerecTracker.org
BitTorrentTracker PerecTracker.org
    
Регистрация  ·  Вход
 
 · 
Забыли пароль?

  • Те, кого нельзя целовать / Naomi and Ely\'s No Kiss List (Кристин Хангги / Kristin Hanggi) [2015, США, Драма, мелодрама, комедия, WEB-DLRip] VO + Original Eng

    Ответить на тему
     
    Автор Сообщение

    Light

    Создавать темы 08-Июн-2016 23:55

           

    [Цитировать]

    Те, кого нельзя целовать / Naomi and Ely's No Kiss List
    Страна: США
    Жанр: Драма, мелодрама, комедия
    Год выпуска: 2015
    Продолжительность: 01:30:32
    Перевод: Одноголосый закадровый
    Cубтитры: нет
    Оригинальная аудиодорожка: английский
    Режиссер: Кристин Хангги / Kristin Hanggi
    В ролях: Виктория Джастис, Пирсон Фод, Мэттью Даддарио, Райан Уорд, Дэн Флаэрти, Гриффин Ньюман, Кевин Эбернети, Коннор Антико, Али Скай Беннетт
    Описание: Главные герои — Наоми и ее друг-гей Илай. Нерушимость своей дружбы парочка решает скрепить составлением списка знакомых, с которыми дело не должно дойти до интимных отношений. Но в один прекрасный день Илай целует бойфренда Наоми, и дружбе приходит конец
    Сэмпл: http://sendfile.su/1240757
    Качество видео: WEB-DLRip
    Формат видео: AVI
    Видео: Хvid; 720x304 (2.35:1); 23.976 fps; 1718 kbps avg
    Аудио: АС-3 ; 2 Сh, 48.0 KHz, 192 кб/с (Russian)
    Аудио 2: АС-3 ; 6 Сh, 48.0 KHz, 384 кб/с (English)

    MediaInfo

    Format : AVI
    Format/Info : Audio Video Interleave
    File size : 1.46 GiB
    Duration : 1h 30mn
    Overall bit rate : 2 308 Kbps
    Writing application : VirtualDubMod 1.5.10.3 | www.virtualdub-fr.org || (build 2550/release)
    Writing library : VirtualDubMod build 2550/release
    Video
    ID : 0
    Format : MPEG-4 Visual
    Format profile : Advanced Simple@L5
    Format settings, BVOP : 2
    Format settings, QPel : No
    Format settings, GMC : No warppoints
    Format settings, Matrix : Default (MPEG)
    Codec ID : XVID
    Codec ID/Hint : XviD
    Duration : 1h 30mn
    Bit rate : 1 718 Kbps
    Width : 720 pixels
    Height : 304 pixels
    Display aspect ratio : 2.35:1
    Frame rate : 23.976 (24000/1001) fps
    Color space : YUV
    Chroma subsampling : 4:2:0
    Bit depth : 8 bits
    Scan type : Progressive
    Compression mode : Lossy
    Bits/(Pixel*Frame) : 0.327
    Stream size : 1.09 GiB (74%)
    Writing library : XviD 67
    Audio #1
    ID : 1
    Format : AC-3
    Format/Info : Audio Coding 3
    Mode extension : CM (complete main)
    Format settings, Endianness : Big
    Codec ID : 2000
    Duration : 1h 30mn
    Bit rate mode : Constant
    Bit rate : 192 Kbps
    Channel(s) : 2 channels
    Channel positions : Front: L R
    Sampling rate : 48.0 KHz
    Frame rate : 31.250 fps (1536 spf)
    Compression mode : Lossy
    Stream size : 124 MiB (8%)
    Alignment : Split accross interleaves
    Interleave, duration : 42 ms (1.00 video frame)
    Interleave, preload duration : 500 ms
    Audio #2
    ID : 2
    Format : AC-3
    Format/Info : Audio Coding 3
    Mode extension : CM (complete main)
    Format settings, Endianness : Big
    Codec ID : 2000
    Duration : 1h 30mn
    Bit rate mode : Constant
    Bit rate : 384 Kbps
    Channel(s) : 6 channels
    Channel positions : Front: L C R, Side: L R, LFE
    Sampling rate : 48.0 KHz
    Frame rate : 31.250 fps (1536 spf)
    Compression mode : Lossy
    Stream size : 249 MiB (17%)
    Alignment : Split accross interleaves
    Interleave, duration : 42 ms (1.00 video frame)
    Interleave, preload duration : 500 ms

    Скриншот c названием фильма

    Скриншоты






    Скачать .torrent

    Скачать торрент-файл бесплатно и на максимальной скорости!

    Как скачивать? · Что такое торрент? · Рейтинг и ограничения

    !ВНИМАНИЕ!
    Сайт не распространяет и не хранит электронные версии произведений, а занимается лишь лишь предоставлением доступа к создаваемому пользователями каталогу ссылок на торрент-файлы, которые содержат только списки хеш-сумм, убедительная просьба с жалобами обращаться напрямую к пользователю. Файлы для обмена на трекере предоставлены пользователями сайта, и администрация не несёт ответственности за их содержание. Просьба не заливать файлы, защищенные авторскими правами, а также файлы нелегального содержания!


    _________________
    [Профиль] [ЛС]
    Показать сообщения:    
    Ответить на тему

    Текущее время: Сегодня, в 03:13

    Часовой пояс: GMT + 2



    Вы не можете начинать темы
    Вы не можете отвечать на сообщения
    Вы не можете редактировать свои сообщения
    Вы не можете удалять свои сообщения
    Вы не можете голосовать в опросах
    Вы не можете прикреплять файлы к сообщениям
    Вы не можете скачивать файлы