BitTorrentTracker PerecTracker.org
BitTorrentTracker PerecTracker.org
    
Регистрация  ·  Вход
 
 · 
Забыли пароль?

  • Мой чужой ребенок / Ждёт меня любимый (Андрей Красавин) [2016, Мелодрама, HDTVRip]

    Ответить на тему
     
    Автор Сообщение

    Flirldrerve

    Создавать темы 08-Июн-2016 23:55

           

    [Цитировать]

    Мой чужой ребенок / Ждёт меня любимый
    Жанр: Мелодрама
    Год выпуска: 2016
    Продолжительность: 01:30:25
    Режиссёр: Андрей Красавин
    В ролях: Люба Баханкова, Михаил Пшеничный, Зоя Антонова, Марта Голубева, Виталий Новиков
    Описание: Дарья работает няней в богатой и состоятельной семье. Эта работа нужно ей, чтобы выжить, пока она выучится на детского психолога. Даша выросла благодаря заботе и усилиям своей мамы, которая однажды обожглась на отце девушки. В итоге, Даша поняла, что никогда и не за что не хочет зависеть в жизни от других людей, а потому решила, что если и родит ребенка, то только от анонимного донора. Проблема заключается в том, что такой метод беременности стоит чересчур дорого для Даши. Девушка отлично понимает, что столько денег простой няней ей не заработать, подружка Нина советует Дарье попросить денег у Егора. Этот парень бросил Дарью четыре года назад. Разрыв сопровождался беременностью Дарьи, только парень так и не знает о том, что девушка была в положении, и у нее случился выкидыш. Чтобы проучить парня девушки придумывают жестокий план....
    Сэмпл: https://yadi.sk/i/eHfqr_E1sMKFu
    Качество видео: HDTVRip
    Формат видео: AVI
    Видео: XviD 73, 720x400, (16:9), 25,000fps, 1965 Кбит/сек, 8 бит
    Аудио: Русский (AC-3, 2 ch (Front: L R), 48,0 KHz, 192 Kbps)

    MediaInfo

    Общее
    Полное имя : F:\Видеофильмы\В и д е о\Мой чужой ребенок (мелодрама 2016г).avi
    Формат : AVI
    Формат/Информация : Audio Video Interleave
    Размер файла : 1,37 Гбайт
    Продолжительность : 1 ч. 30 м.
    Общий поток : 2167 Кбит/сек
    Программа кодирования : VirtualDubModRus 1.5.10.2 (build 2542/release)
    Библиотека кодирования : VirtualDubMod build 2542/release
    Видео
    Идентификатор : 0
    Формат : MPEG-4 Visual
    Профиль формата : Advanced Simple@L5
    Параметр BVOP формата : 1
    Параметр QPel формата : Нет
    Параметр GMC формата : Без точки перехода
    Параметр матрицы формата : Выборочная
    Идентификатор кодека : XVID
    Идентификатор кодека/Подсказка : XviD
    Продолжительность : 1 ч. 30 м.
    Битрейт : 1965 Кбит/сек
    Ширина : 720 пикселей
    Высота : 400 пикселей
    Соотношение сторон : 16:9
    Частота кадров : 25,000 кадров/сек
    Цветовое пространство : YUV
    Субдискретизация насыщенности : 4:2:0
    Битовая глубина : 8 бит
    Тип развёртки : Прогрессивная
    Метод сжатия : С потерями
    Бит/(Пиксели*Кадры) : 0.273
    Размер потока : 1,24 Гбайт (91%)
    Библиотека кодирования : XviD 73
    Аудио
    Идентификатор : 1
    Формат : AC-3
    Формат/Информация : Audio Coding 3
    Расширение режима : CM (complete main)
    Параметр Endianness формата : Big
    Идентификатор кодека : 2000
    Продолжительность : 1 ч. 30 м.
    Вид битрейта : Постоянный
    Битрейт : 192 Кбит/сек
    Каналы : 2 канала
    Расположение каналов : Front: L R
    Частота : 48,0 КГц
    Частота кадров : 31,250 кадров/сек (1536 spf)
    Метод сжатия : С потерями
    Размер потока : 124 Мбайт (9%)
    Выравнивание : Разделение по промежуткам
    Продолжительность промежутка : 40 мс. (1,00 видеокадр)
    Время предзагрузки промежутка : 500 мс.

    Скриншот c названием фильма

    Скриншоты

    Скачать .torrent

    Скачать торрент-файл бесплатно и на максимальной скорости!

    Как скачивать? · Что такое торрент? · Рейтинг и ограничения

    !ВНИМАНИЕ!
    Сайт не распространяет и не хранит электронные версии произведений, а занимается лишь лишь предоставлением доступа к создаваемому пользователями каталогу ссылок на торрент-файлы, которые содержат только списки хеш-сумм, убедительная просьба с жалобами обращаться напрямую к пользователю. Файлы для обмена на трекере предоставлены пользователями сайта, и администрация не несёт ответственности за их содержание. Просьба не заливать файлы, защищенные авторскими правами, а также файлы нелегального содержания!


    _________________
    [Профиль] [ЛС]
    Показать сообщения:    
    Ответить на тему

    Текущее время: Сегодня, в 20:14

    Часовой пояс: GMT + 2



    Вы не можете начинать темы
    Вы не можете отвечать на сообщения
    Вы не можете редактировать свои сообщения
    Вы не можете удалять свои сообщения
    Вы не можете голосовать в опросах
    Вы не можете прикреплять файлы к сообщениям
    Вы не можете скачивать файлы