BitTorrentTracker PerecTracker.org
BitTorrentTracker PerecTracker.org
    
Регистрация  ·  Вход
 
 · 
Забыли пароль?

  • Есть еще порох / Les vieux calibres (Марсель Блюваль / Marcel Bluwal, Серж де Клозе / Serge De Closets) [2012, Франция, авантюрная комедия, DVB] Original (Fre) + Sub (Rus, Eng, Fre, Deu)

    Ответить на тему
     
    Автор Сообщение

    Light

    Создавать темы 08-Июн-2016 23:55

           

    [Цитировать]

    Есть еще порох
    Les vieux calibres
    -Страна: Франция
    Жанр: авантюрная комедия
    Год выпуска: 2012
    Продолжительность: 01:27:53Перевод: Субтитры (перевод О.Першиной, Éclair Group)
    Cубтитры: русские, английские, французские, немецкие, нидерландские, румынские
    Оригинальная аудиодорожка: французский
    Режиссер: Марсель Блюваль / Marcel Bluwal, Серж де Клозе / Serge De Closets
    В ролях: Даниель Лебрюн / Danièle Lebrun (Emilienne), Мишель Омон / Michel Aumont (Irénée Lecoutre), Роже Дюма / Roger Dumas (Double Infarct), Катрин Жакоб / Catherine Jacob (Mme Le Bihan), Жан-Люк Бидо / Jean-Luc Bideau (Titi Le Pensec)
    Описание: Полный юмора и легкого сарказма фильм рассказывает историю четырех постояльцев дома престарелых. Они будут нарушать установленные правила в стремлении вновь испытать сильные эмоции. Четверка даже решится совершить ограбление кассы, охраняемой железной рукой мадам Биан. Но и этого оказажется недостаточным для удовлетворения желания адреналина! Они узнают, что дом престарелых собирается посетить министр социального обеспечения с целью заполучить голоса пенсионеров на предстоящих выборах…-Даниель Лебрюн - замечательная театральная актриса "Комеди-Франсез", обладательница двух премий "Мольер" и номинантка на кинопремию "Сезар".
    Мишель Омон - с середины 1970-х один из ведущих комедийных актёров французского кино, несмотря на то что исполнет, главным образом, роли второго плана. 30 лет работал в "Комеди-Франсез". Имеет 4 премии "Мольер" и трижды номинировался на "Сезар".
    Роже Дюма - актер театра и кино, автор песен из репертуара Джонни Холлидея, Ива Монтана, Паташу, Шанталь Гойя, Сильви Вартан, Мари Лафоре и др., лауреат театральной премии "Мольер".-Доп. информация: Hot Bird (13.0°E) TV5MONDE Europe DVB-S
    Участник Festival des Créations télévisuelles de Luchon 2013.

    Качество видео: DVB
    Формат видео: TS
    Видео: MPEG Video 2, 720x576@1024x576 (16:9), 25 fps, ~3274 kbps avg, 0.316 bit/pixel
    Аудио: MPEG Audio 2, 2 ch, 48 kHz, 192 kbps - французский
    Формат субтитров: PGS

    MediaInfo

    GeneralID : 1 (0x1)Complete name : [apreder]Les_vieux_calibres(2012)DVB.tsFormat : MPEG-TSFile size : 2.24 GiBDuration : 1h 27mnOverall bit rate mode : VariableOverall bit rate : 3 648 KbpsMaximum Overall bit rate : 35.5 Mbps
    VideoID : 4113 (0x1011)Menu ID : 1 (0x1)Format : MPEG VideoFormat version : Version 2Format profile : Main@MainFormat settings, BVOP : YesFormat settings, Matrix : CustomFormat settings, GOP : VariableFormat settings, picture structure : FrameCodec ID : 2Duration : 1h 27mnBit rate mode : VariableBit rate : 3 274 KbpsWidth : 720 pixelsHeight : 576 pixelsDisplay aspect ratio : 16:9Frame rate : 25.000 fpsStandard : PALColor space : YUVChroma subsampling : 4:2:0Bit depth : 8 bitsScan type : InterlacedScan order : Top Field FirstCompression mode : LossyBits/(Pixel*Frame) : 0.316Time code of first frame : 00:00:00:00Time code source : Group of pictures headerGOP, Open/Closed : OpenGOP, Open/Closed of first frame : ClosedStream size : 2.01 GiB (90%)
    AudioID : 4352 (0x1100)Menu ID : 1 (0x1)Format : MPEG AudioFormat version : Version 1Format profile : Layer 2Mode : Joint stereoMode extension : Intensity Stereo + MS StereoCodec ID : 4Duration : 1h 27mnBit rate mode : ConstantBit rate : 192 KbpsChannel(s) : 2 channelsSampling rate : 48.0 KHzCompression mode : LossyStream size : 121 MiB (5%)Language : French
    Text #1ID : 4608 (0x1200)Menu ID : 1 (0x1)Format : PGSCodec ID : 144Duration : 1h 27mnDelay relative to video : 30s 0msLanguage : Russian
    Text #2ID : 4609 (0x1201)Menu ID : 1 (0x1)Format : PGSCodec ID : 144Duration : 1h 27mnDelay relative to video : 29s 920msLanguage : English
    Text #3ID : 4610 (0x1202)Menu ID : 1 (0x1)Format : PGSCodec ID : 144Language : French
    Text #4ID : 4611 (0x1203)Menu ID : 1 (0x1)Format : PGSCodec ID : 144Duration : 1h 27mnDelay relative to video : 29s 920msLanguage : German
    Text #5ID : 4612 (0x1204)Menu ID : 1 (0x1)Format : PGSCodec ID : 144Delay relative to video : 29s 920msLanguage : Dutch
    Text #6ID : 4613 (0x1205)Menu ID : 1 (0x1)Format : PGSCodec ID : 144Duration : 1h 27mnDelay relative to video : 29s 920msLanguage : Romanian

    Скриншот c названием фильма

    Скриншоты

    Резервные скриншоты


    -
    Скачать .torrent

    Скачать торрент-файл бесплатно и на максимальной скорости!

    Как скачивать? · Что такое торрент? · Рейтинг и ограничения

    !ВНИМАНИЕ!
    Сайт не распространяет и не хранит электронные версии произведений, а занимается лишь лишь предоставлением доступа к создаваемому пользователями каталогу ссылок на торрент-файлы, которые содержат только списки хеш-сумм, убедительная просьба с жалобами обращаться напрямую к пользователю. Файлы для обмена на трекере предоставлены пользователями сайта, и администрация не несёт ответственности за их содержание. Просьба не заливать файлы, защищенные авторскими правами, а также файлы нелегального содержания!


    _________________
    [Профиль] [ЛС]
    Показать сообщения:    
    Ответить на тему

    Текущее время: Сегодня, в 10:49

    Часовой пояс: GMT + 2



    Вы не можете начинать темы
    Вы не можете отвечать на сообщения
    Вы не можете редактировать свои сообщения
    Вы не можете удалять свои сообщения
    Вы не можете голосовать в опросах
    Вы не можете прикреплять файлы к сообщениям
    Вы не можете скачивать файлы